Мандалорец / The Mandalorian (2019) WEBRip (сезон 1, серии 1-8 из 8) HDRezka Studio скачать торрент

Reply to topic

DL-List and Torrent activity [Update пиров]
Size:  3.31 GB   |    Registered:  2 months 30 days   |    Completed:  1 time

Seeder not seen: Never

 
 
 
 
 
Author Message

BiOS ®

Longevity: 5 years 11 months

Posts: 2425

Location: Earth


Post 19-Nov-2019 05:08

[Quote]

Мандалорец / The Mandalorian - Производство: США / Lucasfilm, Walt Disney Studios
Жанр: фантастика, боевик, приключения
Режиссер: Дебора Чоу, Рик Фамуйива, Дэйв Филони
Актеры: Педро Паскаль, Кайл Пацек, Брендан Уэйн, Бернард Баллен, Александра Гилман, Тейт Флетчер, Карл Уэзерс, Вернер Херцог и др.
Описание:
Одинокий мандалорец-наёмник живёт на краю обитаемой галактики, куда не дотягивается закон Новой Республики. Представитель некогда могучей расы благородных воинов теперь вынужден влачить жалкое существование среди отбросов общества.

Дата мировой премьеры: 12 ноября 2019
Продолжительность: ~00:38:00 серия
Качество видео: WEBRip
Перевод: Многоголосый, профессиональный - HDRezka Studio
Реклама: присутствуют аудио вставки рекламы
Видео: Xvid, 720x304, ~1415 Kbps
Аудио: AC3, 2 ch, 192 Kbps - русский

MediaInfo:

Общее
Полное имя : DThe.Mandalorian.S01E01.WEBRip.avi
Формат : AVI
Формат/Информация : Audio Video Interleave
Размер файла : 451 Мбайт
Продолжительность : 38 м. 56 с.
Общий поток : 1618 Кбит/сек
Программа кодирования : Lavf58.20.100
Видео
Идентификатор : 0
Формат : MPEG-4 Visual
Профиль формата : Advanced Simple@L5
Настройки формата : BVOP2
Параметр BVOP формата : 2
Параметр QPel формата : Нет
Параметр GMC формата : Без точки перехода
Параметр матрицы формата : Default (MPEG)
Идентификатор кодека : XVID
Идентификатор кодека/Подсказка : XviD
Продолжительность : 38 м. 56 с.
Битрейт : 1415 Кбит/сек
Ширина : 720 пикселей
Высота : 304 пикселя
Соотношение сторон : 2,35:1
Частота кадров : 23,976 (24000/1001) кадра/сек
Цветовое пространство : YUV
Субдискретизация насыщенности : 4:2:0
Битовая глубина : 8 бит
Тип развёртки : Прогрессивная
Метод сжатия : С потерями
Бит/(Пиксели*Кадры) : 0.270
Размер потока : 394 Мбайт (87%)
Библиотека кодирования : XviD 67
Аудио
Идентификатор : 1
Формат : AC-3
Формат/Информация : Audio Coding 3
Коммерческое название : Dolby Digital
Идентификатор кодека : 2000
Продолжительность : 38 м. 56 с.
Вид битрейта : Постоянный
Битрейт : 192 Кбит/сек
Каналы : 2 канала
ChannelLayout : L R
Частота : 48,0 КГц
Частота кадров : 31,250 кадров/сек (1536 SPF)
Битовая глубина : 16 бит
Метод сжатия : С потерями
Размер потока : 53,5 Мбайт (12%)
Выравнивание : Соединение по промежуткам
Продолжительность промежутка : 32 мс. (0,77 видеокадр)
ServiceKind/String : Complete Main
-Скриншоты:


Смотреть онлайн


[trackeroc.org].29513.torrent 
Torrent: Registered   [ 2019-12-30 04:42 ]

Скачать торрент

18 KB

Status: checked
Completed: 15 times
Size: 3.31 GB
 

Admin (19-ноя-19)
Similar torrent
Forum Topic Author Size
Фантастика ,Фэнтези Мандалорец / The Mandalorian (2019) WEB-DLRip [H.264/1080p-LQ] AlexFilm BiOS 11.65 GB
Зарубежные сериалы Мандалорец / The Mandalorian (2019) WEBRip [H.264/1080p-LQ] (сезон 1, серии 1-8 из 8) Lostfilm BiOS 16.7 GB

_________________
[Profile] [PM]
Display posts from previous:    
Reply to topic

The time now is: Today 13:26

All times are GMT + 4 Hours



You cannot post new topics in this forum
You cannot reply to topics in this forum
You cannot edit your posts in this forum
You cannot delete your posts in this forum
You cannot vote in polls in this forum
You cannot attach files in this forum
You can download files in this forum