Маскарад / Создатель масок / Maskerade / Mask Maker (2010) BDRip [H.264/1080p-LQ]

Ответить на тему
 
Автор Сообщение

BiOS ®

Стаж: 3 года 2 месяца

Сообщений: 1987

Откуда: Raccoon City


Пост 30-Ноя-2016 10:40

[Цитировать]

Маскарад / Создатель масок / Maskerade / Mask Maker- Производство: США / Active Entertainment, Bullet Films
Жанр: Ужасы, Триллер
Режиссер: Грифф Ферст
Актеры: Никки Делоач, Стивен Коллетти, Анабелла Касанова, Росс Бритс, Терри Кайзер, Мария Боннер, А.Дж. Аллегра, Лара Грайс, Майкл Берриман, Трит Уильямс, Лианн Паттисон, Джон Ли, Челси Морган Томас, Ричи Монтгомери, Джо Крест, Джейсон Лондон
Описание:
На день рождения Дженнифер бойфренд Эван привёз её за город к ветхому двухэтажному особняку времён гражданской войны и гордо объявил, что купил его в рассрочку и оформил на её имя. Дженнифер покорно приняла подарок, и решив привести своё новое жильё в порядок, парочка вскоре отправилась в близлежащий посёлок за стройматериалами.
Местные жители настороженно отнеслись к тому, что у особняка появились новые хозяева, и посоветовали молодёжи на всякий случай не трогать ничего на заднем дворе. Однако было уже поздно: днём ранее Эван нашёл там торчавшее из земли индейское копьё и убрал его с глаз долой, после чего на том месте появилась зловещая яма, похожая на разрытую могилу.
Возраст: 18+ (зрителям, достигшим 18 лет. запрещено для детей)
Рейтинг MPAA: R (лицам до 17 лет обязательно присутствие взрослого)
Релиз от: R.G. Goldenshara
Продолжительность: 01:29:54
Качество видео: BDRip (1080p-LQ)
Перевод: Двухголосый закадровый, профессиональный (НТВ+)
Язык субтитров: Английский
Вид субтитров: Вшитые (отключаемые)
Видео: AVC/H.264, 1920x1080 (16:9), ~6511 kbps, 23.976 fps
Аудио: AC3, 6 ch, 48 kHz, 448 kbps, CBR

Mediainfo:

Код:
General
Format                                   : Matroska
Format version                           : Version 4 / Version 2
File size                                : 4.35 GiB
Duration                                 : 1h 29mn
Overall bit rate                         : 6 930 Kbps
Encoded date                             : UTC 2016-11-27 23:47:51
Writing application                      : mkvmerge v6.8.0 ('Theme for Great Cities') 32bit built on Mar  2 2014 21:27:07
Writing library                          : libebml v1.3.0 + libmatroska v1.4.1
Video
ID                                       : 1
Format                                   : AVC
Format/Info                              : Advanced Video Codec
Format profile                           : High@L4.1
Format settings, CABAC                   : Yes
Format settings, ReFrames                : 4 frames
Codec ID                                 : V_MPEG4/ISO/AVC
Duration                                 : 1h 29mn
Bit rate                                 : 6 511 Kbps
Width                                    : 1 920 pixels
Height                                   : 1 080 pixels
Display aspect ratio                     : 16:9
Frame rate mode                          : Constant
Frame rate                               : 23.976 fps
Color space                              : YUV
Chroma subsampling                       : 4:2:0
Bit depth                                : 8 bits
Scan type                                : Progressive
Bits/(Pixel*Frame)                       : 0.131
Stream size                              : 3.98 GiB (92%)
Writing library                          : x264 core 146 r2538 121396c
Encoding settings                        : cabac=1 / ref=4 / deblock=1:-3:-3 / analyse=0x3:0x113 / me=umh / subme=11 / psy=1 / psy_rd=1.00:0.15 / mixed_ref=1 / me_range=48 / chroma_me=1 / trellis=2 / 8x8dct=1 / cqm=0 / deadzone=21,11 / fast_pskip=0 / chroma_qp_offset=-4 / threads=6 / lookahead_threads=1 / sliced_threads=0 / nr=0 / decimate=1 / interlaced=0 / bluray_compat=0 / constrained_intra=0 / bframes=8 / b_pyramid=2 / b_adapt=2 / b_bias=0 / direct=2 / weightb=1 / open_gop=0 / weightp=2 / keyint=250 / keyint_min=23 / scenecut=40 / intra_refresh=0 / rc_lookahead=50 / rc=2pass / mbtree=0 / bitrate=6511 / ratetol=1.0 / qcomp=0.60 / qpmin=0 / qpmax=69 / qpstep=4 / cplxblur=20.0 / qblur=0.5 / vbv_maxrate=14000 / vbv_bufsize=14000 / nal_hrd=none / filler=0 / ip_ratio=1.40 / pb_ratio=1.30 / aq=2:1.00
Language                                 : English
Default                                  : Yes
Forced                                   : No
Color primaries                          : Generic film
Matrix coefficients                      : YCgCo
Audio
ID                                       : 2
Format                                   : AC-3
Format/Info                              : Audio Coding 3
Mode extension                           : CM (complete main)
Format settings, Endianness              : Big
Codec ID                                 : A_AC3
Duration                                 : 1h 29mn
Bit rate mode                            : Constant
Bit rate                                 : 448 Kbps
Channel(s)                               : 2 channels
Channel positions                        : Front: L R
Sampling rate                            : 48.0 KHz
Bit depth                                : 16 bits
Compression mode                         : Lossy
Stream size                              : 288 MiB (6%)
Title                                    : DVO, НТВ+
Language                                 : Russian
Default                                  : Yes
Forced                                   : No
Text
ID                                       : 3
Format                                   : UTF-8
Codec ID                                 : S_TEXT/UTF8
Codec ID/Info                            : UTF-8 Plain Text
Language                                 : English
Default                                  : No
Forced                                   : No
Menu
00:00:00.000                             : :Chapter 01
00:06:59.961                             : :Chapter 02
00:13:59.964                             : :Chapter 03
00:20:59.967                             : :Chapter 04
00:27:59.928                             : :Chapter 05
00:34:59.931                             : :Chapter 06
00:41:59.934                             : :Chapter 07
00:48:59.895                             : :Chapter 08
00:55:59.898                             : :Chapter 09
01:02:59.942                             : :Chapter 10
01:09:59.945                             : :Chapter 11
01:16:59.906                             : :Chapter 12
-Скриншоты:


Смотреть онлайн


[trackeroc.ru].16846.torrent 
Торрент: Зарегистрирован   [ 2016-11-30 10:40 ]

Скачать торрент

12 KB

Статус: проверено
Скачан: 25 раз
Размер: 4.35 GB
 


_________________
[Профиль] [ЛС]
Показать сообщения:    
Ответить на тему

Текущее время: Сегодня 07:25

Часовой пояс: GMT + 4



Вы не можете начинать темы
Вы не можете отвечать на сообщения
Вы не можете редактировать свои сообщения
Вы не можете удалять свои сообщения
Вы не можете голосовать в опросах
Вы не можете прикреплять файлы к сообщениям
Вы можете скачивать файлы