Матрица: Революция / The Matrix Revolutions (2003) BDRip [H.264/1080p-LQ]

Ответить на тему

Статистика раздачи [Обновить пиров]
Скачали
Размер:  4.37 GB   |    Зарегистрирован:  1 год   |    Скачан:  3 раза

Полного источника не было: 1 месяц 19 дней

 
 
 
 
Автор Сообщение

BiOS ®

Стаж: 2 года 7 месяцев

Сообщений: 1732

Откуда: Raccoon City


Пост 17-Ноя-2015 11:37

[Цитировать]

Матрица: Революция / The Matrix Revolutions «Все, что имеет начало, имеет и конец»- Производство: Австралия, США / NPV Entertainment, Silver Pictures, Village Roadshow Pictures, Warner Bros. Pictures Co., МОСФИЛЬМ-мастер (дубляж)
Жанр: Фантастика, Боевик
Режиссер: Энди Вачовски, Ларри Вачовски
Актеры: Киану Ривз, Хьюго Уивинг, Кэрри-Энн Мосс, Лоренс Фишбёрн, Хэролд Перрино, Джина Торрес, Джада Пинкетт Смит, Моника Беллуччи, Гарри Дж. Ленникс, Мэри Элис
Описание:
«Матрица: Революция» (англ. The Matrix Revolutions) — третий и последний фильм в трилогии «Матрица», снятый Ларри и Эндрю Вачовски. «Революция» вышла 5 ноября 2003 года.
Фильм является прямым продолжением «Матрицы: Перезагрузки» и повествует о последних часах войны людей и машин, судьбу которой должен решить Избранный — Нео.
Рейтинг MPAA: R (лицам до 17 лет обязательно присутствие взрослого)
Возраст: 16+ (зрителям, достигшим 16 лет)
Продолжительность: 02:09:15
Качество видео: BDRip
Перевод: Дублированный
Язык субтитров: Английский
Вид субтитров: Вшитые (отключаемые)
Видео: AVC/H.264, 1920x792, ~4204 kbps, 23.976 fps
Аудио: AC3 5.1 ch, 48 kHz, 640 kbps (Русский дубляж)

Интересные факты:

  • Актриса Глория Фостер, игравшая роль Пифии в первых двух частях, умерла до того, как успела сыграть свою роль в третьем фильме, и её заменила актриса Мэри Элис. Режиссёры добавили в сюжет оговорку по этому поводу, чтобы оправдать смену внешнего облика героини, также они признались, что по стечению обстоятельств в одном из вариантов сценария Пифия действительно должна была сменить облик.
  • Йен Блисс получил роль в фильме частично из-за своего внешнего сходства с Хьюго Уивингом.
  • Корабль, который упоминается как «Молот», на самом деле называется «Мьёлльнир», по названию молота Тора (бога грома, бурь и плодородия в германско-скандинавской мифологии).
  • Премьера фильма состоялась одновременно в крупнейших городах мира: 5 ноября в 6:00 в Лос-Анджелесе (по местному времени), 9:00 в Нью-Йорке, 14:00 в Лондоне, 17:00 в Москве, 23:00 в Токио, в 1:00 в Сиднее, а также еще в 50 странах по всему миру.
  • Команде по спецэффектам потребовалось два месяца, чтобы разработать машины для имитации идеально ровно падающих капель дождя.
  • Вдохновением для финальной схватки между Смитом и Нео создателям послужил финальный бой в «Спрятаться негде» (1999).
  • Когда Нео идет к Оракулу на заднем фоне играет «I`m Beginning to See the Light», та же самая композиция в другой версии играет в схожей сцене в «Матрице» (1999).
  • Оракул курит сигареты «Double Destiny».
  • Когда Тринити преследует Проводника, то можно заметить рекламу «Powerade». Когда «Матрица: Перезагрузка» появилась на экранах, в США вышли рекламные ролики «Powerade» в стиле «Матрицы».
  • Черный кот в концовке фильма — это тот же самый кот в дежа-вю сцене в «Матрице» (1999).
  • В фильме содержится 804 сцены со спецэффектами.
  • Название станции между Миром машин и Матрицей — Mobil Ave. Mobil — анаграмма от Limbo, что в переводе означает чистилище, место между раем и адом.
  • В финальной сцене фильма зритель впервые за всю трилогию видит зеленые цвета и голубое небо внутри Матрицы.
  • Название музыкальной темы финального боя между Нео и Смитом — «Neodämmerung» — происходит из немецкого слова «Gotterdämmerung» (дословно «сумерки богов»). Это также название части оперы Вагнера «Кольцо Нибелунгов». В «Gotterdämmerung» речь шла о финальной битве между богами, которая привела к их уничтожению. Зная, что произойдет, боги сражались за выживание человечества. Название музтемы не только подходит под сюжетную составляющую сцены, но и также подчеркивает влияние музыки Вагнера на запись саундтрека фильма.
  • Съемки фильмов «Матрица: Перезагрузка» (2003) и «Матрица: Революция» (2003) начались одновременно в Окленде и Сан-Франциско в конце марта 2001 года. Фактический график съемок составил 250 дней.
  • Улица, на которой Нео и Смит дерутся в концовке фильма, — это та же самая улица, с которой Нео звонил в концовке «Матрицы» (1999).
  • Во время финальной схватки между Нео и Смитом и во время финальных титров, повторяется санскритская слока в европейском стиле: «Asatoma Sat Gamaya, Tamasoma Jyotir Gamaya, Mrityorma Anritam Gamaya», — что при дословном переводе означает: «Веди меня из нереальности в реальность, веди меня из тьмы в свет, веди меня из временного в вечность».
  • Многие «дождевые капли» в финальном бое между Нео и Смитом — это на самом деле однолинейный матричный код, схожий с тем, что видят герои на экранах компьютеров, когда наблюдают за Матрицей. Данный эффект был специально добавлен, чтобы показать, что Матрица начала дестабилизироваться. Эффект очень хорошо заметен на крупных экранах кинотеатров, но его также можно увидеть и на экранах домашних телевизоров: во время крупных планов обратите внимание на капли, «прыгающие» словно элетростатистические помехи.

Mediainfo:

Код:
General
Unique ID                   : 208591645933139837591747416392046290234 (0x9CED4A2A1E22DFF8B524C7392735253A)
Complete name               : C:\Users\David\Videos\Matrix\3\Матрица. Революция (2003) BDRip [1080p].mkv
Format                      : Matroska
Format version              : Version 2
File size                   : 4.37 GiB
Duration                    : 2h 9mn
Overall bit rate            : 4 845 Kbps
Encoded date                : UTC 2011-07-12 17:39:07
Writing application         : mkvmerge v4.0.0 ('The Stars were mine') сборка от Jun  6 2010 16:18:42
Writing library             : libebml v1.0.0 + libmatroska v1.0.0
Video
ID                          : 1
Format                      : AVC
Format/Info                 : Advanced Video Codec
Format profile              : High@L4.1
Format settings, CABAC      : Yes
Format settings, ReFrames   : 5 frames
Codec ID                    : V_MPEG4/ISO/AVC
Duration                    : 2h 9mn
Bit rate                    : 4 204 Kbps
Width                       : 1 920 pixels
Height                      : 792 pixels
Display aspect ratio        : 2.40:1
Frame rate mode             : Constant
Frame rate                  : 23.976 fps
Color space                 : YUV
Chroma subsampling          : 4:2:0
Bit depth                   : 8 bits
Scan type                   : Progressive
Bits/(Pixel*Frame)          : 0.115
Stream size                 : 3.71 GiB (85%)
Writing library             : x264 core 115 r2008 4c552d8
Encoding settings           : cabac=1 / ref=5 / deblock=1:0:0 / analyse=0x3:0x133 / me=umh / subme=10 / psy=1 / psy_rd=1.00:0.10 / mixed_ref=1 / me_range=32 / chroma_me=1 / trellis=2 / 8x8dct=1 / cqm=0 / deadzone=21,11 / fast_pskip=0 / chroma_qp_offset=-3 / threads=12 / sliced_threads=0 / nr=0 / decimate=1 / interlaced=0 / bluray_compat=0 / constrained_intra=0 / bframes=5 / b_pyramid=2 / b_adapt=2 / b_bias=0 / direct=3 / weightb=1 / open_gop=0 / weightp=2 / keyint=250 / keyint_min=23 / scenecut=40 / intra_refresh=0 / rc_lookahead=60 / rc=2pass / mbtree=1 / bitrate=4204 / ratetol=1.0 / qcomp=0.60 / qpmin=0 / qpmax=69 / qpstep=4 / cplxblur=20.0 / qblur=0.5 / ip_ratio=1.40 / aq=1:1.00
Language                    : English
Default                     : Yes
Forced                      : No
Audio
ID                          : 2
Format                      : AC-3
Format/Info                 : Audio Coding 3
Mode extension              : CM (complete main)
Format settings, Endianness : Big
Codec ID                    : A_AC3
Duration                    : 2h 9mn
Bit rate mode               : Constant
Bit rate                    : 640 Kbps
Channel(s)                  : 6 channels
Channel positions           : Front: L C R, Side: L R, LFE
Sampling rate               : 48.0 KHz
Compression mode            : Lossy
Stream size                 : 592 MiB (13%)
Language                    : Russian
Default                     : Yes
Forced                      : No
Text
ID                          : 3
Format                      : UTF-8
Codec ID                    : S_TEXT/UTF8
Codec ID/Info               : UTF-8 Plain Text
Language                    : English
Default                     : No
Forced                      : No
-Скриншоты:


Смотреть онлайн

[trackeroc.ru].9853.torrent 
Торрент: Зарегистрирован   [ 2015-11-17 11:37 ]

Скачать торрент

45 KB

Статус: проверено
Скачан: 20 раз
Размер: 4.37 GB
 

Похожие торренты
Форум Тема Автор Размер
Фантастика Фэнтези Планета обезьян: Революция / Dawn of the Planet of the Apes (2014) HDRip BiOS 1.46 GB
Фантастика Фэнтези Матрица: Перезагрузка / The Matrix Reloaded (2003) BDRip [H.264/1080p-LQ] BiOS 4.38 GB
Фантастика Фэнтези Матрица / The Matrix (1999) BDRip [H.264/1080p-LQ] BiOS 4.38 GB
Strategy Стратегии Космические рейнджеры HD: Революция / Space Rangers HD: A War Apart [v 2.1.1800] (2013) (SoftClub) (RUS) Admin 2.47 GB

_________________
[Профиль] [ЛС]
Показать сообщения:    
Ответить на тему

Текущее время: Сегодня 05:58

Часовой пояс: GMT + 4



Вы не можете начинать темы
Вы не можете отвечать на сообщения
Вы не можете редактировать свои сообщения
Вы не можете удалять свои сообщения
Вы не можете голосовать в опросах
Вы не можете прикреплять файлы к сообщениям
Вы можете скачивать файлы