Майк и Молли / Mike and Molly / Сезон: 6 / Серии: 1-11 из 13

Ответить на тему

Статистика раздачи [Обновить пиров]
Размер:  2.51 GB   |    Зарегистрирован:  5 месяцев 11 дней   |    Скачан:  0 раз

Полного источника не было: Никогда

 
 
 
 
Автор Сообщение

Admin ®

Стаж: 7 месяцев 15 дней

Сообщений: 4460

Откуда: trackeroc.ru


Пост 12-Май-2016 10:02

[Цитировать]

Майк и Молли / Mike and Molly- Год выпуска: 2016
Страна: США
Жанр: Комедия
Продолжительность: ~00:20:00
Перевод: Профессиональный (одноголосый закадровый) Кураж-Бамбей по заказу телеканала Paramount Comedy
Режиссёр: Майкл Макдональд
В ролях: Билли Гарделл, Рено Уилсон, Мелисса Маккарти, Кэти Миксон, Свузи Кёрц, Нямби Нямби
Описание: Офицер Майк Биггс — полицейский с добрым сердцем, который искренне желает сбросить вес. Напарник Майка, офицер Карл Макмиллан, худой и болтливый всезнайка, который, несмотря на поддразнивания, поддерживает Майка на его пути к стройности и любви.
Во время одного из собраний Майк встретил Молли Флинн, милую учительницу четвертого класса, которая относится к своим пышным формам со здоровым юмором. Сделать правильный выбор для Молли не всегда просто, потому что она живет со своей сексуальной старшей сестрой Викторией и матерью Джойс. Обе они выставляют напоказ свой здоровый аппетит и стройные фигуры. Майку также приходиться сталкиваться с искушением в закусочной, которую он часто посещает с Карлом. Там они познакомились с сенегальским официантом Самюэлем, для которого диета — незнакомая концепция. Для Майка и Молли, благодаря их взаимной любви к пирогам и желанию сопротивляться им, знакомство друг с другом может быть ценнее «веса».
Доп. информация:
Звук предоставил: Beer kolesik Drinkers и #Antisnl#
Подготовка видео: TaLi4
Звук в видео воткнул: TaLi4
Качество: HDTVRip
Формат: AVI
Видео: 720x400 (1.80:1), 23.976 fps, XviD build 64 ~1344 kbps avg, 0.195 bit/pixel
Аудио #1: 48 kHz, MPEG Layer 3, 2 ch, ~128.00 kbps avg | Кураж-Бамбей |
Аудио #2: 48 kHz, MPEG Layer 3, 2 ch, ~128.00 kbps avg | Оригинал |
Субтитры: отсутствуют

MediaInfo

General
Complete name : C:\Users\Администратор\Desktop\Раздачи\Mike and Molly Season 06 Paramount Comedy\mike.and.molly.s06e01.hdtvrip.rus.eng.paramount.comedy.avi
Format : AVI
Format/Info : Audio Video Interleave
File size : 234 MiB
Duration : 20mn 18s
Overall bit rate : 1 614 Kbps
Writing application : VirtualDubMod 1.5.10.3 | www.virtualdub-fr.org || (build 2550/release)
Writing library : VirtualDubMod build 2550/release
Video
ID : 0
Format : MPEG-4 Visual
Format profile : Advanced Simple@L5
Format settings, BVOP : 2
Format settings, QPel : No
Format settings, GMC : No warppoints
Format settings, Matrix : Default (H.263)
Codec ID : XVID
Codec ID/Hint : XviD
Duration : 20mn 18s
Bit rate : 1 344 Kbps
Width : 720 pixels
Height : 400 pixels
Display aspect ratio : 16:9
Frame rate : 23.976 fps
Color space : YUV
Chroma subsampling : 4:2:0
Bit depth : 8 bits
Scan type : Progressive
Compression mode : Lossy
Bits/(Pixel*Frame) : 0.195
Stream size : 195 MiB (83%)
Writing library : XviD 64
Audio #1
ID : 1
Format : MPEG Audio
Format version : Version 1
Format profile : Layer 3
Mode : Joint stereo
Mode extension : MS Stereo
Codec ID : 55
Codec ID/Hint : MP3
Duration : 20mn 18s
Bit rate mode : Constant
Bit rate : 128 Kbps
Channel(s) : 2 channels
Sampling rate : 48.0 KHz
Compression mode : Lossy
Stream size : 18.6 MiB (8%)
Alignment : Aligned on interleaves
Interleave, duration : 42 ms (1.00 video frame)
Interleave, preload duratio : 504 ms
Audio #2
ID : 2
Format : MPEG Audio
Format version : Version 1
Format profile : Layer 3
Mode : Joint stereo
Mode extension : MS Stereo
Codec ID : 55
Codec ID/Hint : MP3
Duration : 20mn 18s
Bit rate mode : Constant
Bit rate : 128 Kbps
Channel(s) : 2 channels
Sampling rate : 48.0 KHz
Compression mode : Lossy
Stream size : 18.6 MiB (8%)
Alignment : Aligned on interleaves
Interleave, duration : 42 ms (1.00 video frame)
Interleave, preload duratio : 504 ms
Writing library : LAME3.99r
Encoding settings : -m j -V 4 -q 0 -lowpass 17 -b 128

Скриншоты

Внимание! Раздача ведётся путём добавления новых серий

Внимание! Раздача ведётся путём добавления новых серий; при каждом добавлении создётся новый торрент. Чтобы начать докачку новой серии, пользователям необходимо сделать следующее:
(1) остановить скачивание,
(2) удалить старый торрент у себя из клиента (старые серии удалять не надо),
(3) скачать новый торрент и запустить его у себя в клиенте вместо старого, при этом указать клиенту путь в старую папку куда и должно происходить скачивание новых серий.
Ваш клиент при этом должен произвести хеширование (проверку) старой папки (если не производит сам - помогите ему сделать это), и будет докачивать только те серии которых у вас ещё нет. Старые серии при этом не удаляются, а продолжают раздаваться!
Eсли вы уже удалили старые серии, то предотвратить повторную закачку старых серий можно, отжав галочку в соответсвующих местах при запуске нового торрента. По возможности, желательно не удалять старые серии как можно дольше чтобы релизёр не столько продолжал раздавать старые серии, а смог сконцентрироваться на новых.


Смотреть онлайн

[trackeroc.ru].12641.torrent 
Торрент: Зарегистрирован   [ 2016-06-29 13:06 ]

Скачать торрент

14 KB

Статус: проверено
Скачан: 9 раз
Размер: 2.51 GB
 

Похожие торренты
Форум Тема Автор Размер
Ужасы мистика триллеры Экзорцизм Молли Хартли / The Exorcism of Molly Hartley (Стивен Р. Монро / Steven R. Monroe) [2015 г., ужасы, HDRip] DVO [den904 & DeadSno] + Original (Eng) Матвей 1.46 GB
Комедии Супер Майк XXL / Magic Mike XXL (2015) WEB-DLRip | Чистый звук Admin 1.45 GB

_________________
[Профиль] [ЛС]
Показать сообщения:    
Ответить на тему

Текущее время: Сегодня 14:37

Часовой пояс: GMT + 4



Вы не можете начинать темы
Вы не можете отвечать на сообщения
Вы не можете редактировать свои сообщения
Вы не можете удалять свои сообщения
Вы не можете голосовать в опросах
Вы не можете прикреплять файлы к сообщениям
Вы можете скачивать файлы