Лонгмайр / Longmire / Сезон: 1 / Серии: 1-10

Ответить на тему

Статистика раздачи [Обновить пиров]
Размер:  6.25 GB   |    Зарегистрирован:  5 месяцев 26 дней   |    Скачан:  2 раза
Сидов:  11  [  0 KB/s  ]   Личеров:  4  [  0 KB/s  ]   Подробная статистика пиров
   
 
Автор Сообщение

Admin ®

Стаж: 7 месяцев 12 дней

Сообщений: 4451

Откуда: trackeroc.ru


Пост 11-Май-2016 23:32

[Цитировать]

Лонгмайр / Longmire
Год выпуска: 2012
Страна: США
Жанр: боевик, драма, криминал, вестерн
Продолжительность: ~50 мин
Перевод: Профессиональный (многоголосый закадровый) ViruseProject
Режиссёр: Кристофер Чулак, Джеймс М. Муро, Майкл Оффер
В ролях: Роберт Тейлор, Кэти Сакхофф, Лу Даймонд Филлипс, Кэссиди Фриман и др.
Описание: Уолт Лонгмайр — шериф одного небольшого провинциального городка, расположенного в так называемом «Штате равноправия», то есть в Вайоминге. Его психологический портрет отличается весьма положительными характеристиками — порядочный, спокойный, честный, скромный, с хорошим чувством юмора. Прошел всего лишь год с той поры, как Уолт стал вдовцом. Пережить горечь этой утраты шерифу помогает его работа, которой он целиком и полностью отдает все свои силы и время. Полгода тому назад в городок прибыла Вик, ставшая первым замом и главной помощницей Уолта Лонгмайра. К слову, ранее эта симпатичная девушка работала детективом в убойном отделе полиции Филадельфии. Вместе эта парочка следит за порядком на вверенной им территории, и в свободное время тоже.
Качество: HDTVRip
Формат: AVI
Видео: 720x400 (16:9), 23.976 fps, XviD build 50 ~1 530 kbps avg, 0.222 bit/pixel
Аудио: 48 kHz, MPEG Layer 3, 2 ch, ~192.00 kbps avg
Субтитры: отсутствуют

Внимание! Раздача ведётся путём добавления новых серий

Внимание! Раздача ведётся путём добавления новых серий; при каждом добавлении создаётся новый торрент. Чтобы начать докачку новой серии, пользователям необходимо сделать следующее:
(1) остановить скачивание,
(2) удалить старый торрент у себя из клиента (старые серии удалять не надо),
(3) скачать новый торрент и запустить его у себя в клиенте вместо старого, при этом указать клиенту путь в старую папку куда и должно происходить скачивание новых серий.
Ваш клиент при этом должен произвести хеширование (проверку) старой папки (если не производит сам - помогите ему сделать это), и будет докачивать только те серии которых у вас ещё нет. Старые серии при этом не удаляются, а продолжают раздаваться!
Eсли вы уже удалили старые серии, то предотвратить повторную закачку старых серий можно, отжав галочку в соответствующих местах при запуске нового торрента. По возможности, желательно не удалять старые серии как можно дольше чтобы релизёр не столько продолжал раздавать старые серии, а смог сконцентрироваться на новых.

MediaInfo

E:\РЕЛИЗЫ\Longmire (S01) ViruseProject\Longmire.S01E01.ViruseProject.avi
General
Complete name : E:\РЕЛИЗЫ\Longmire (S01) ViruseProject\Longmire.S01E01.ViruseProject.avi
Format : AVI
Format/Info : Audio Video Interleave
File size : 645 MiB
Duration : 52mn 6s
Overall bit rate : 1 732 Kbps
Writing application : VirtualDubMod 1.5.10.2 (build 2540/release)
Writing library : VirtualDubMod build 2540/release
Video #0
ID : 0
Format : MPEG-4 Visual
Format profile : Advanced Simple@L5
Format settings, BVOP : Yes
Format settings, QPel : No
Format settings, GMC : No warppoints
Format settings, Matrix : Default (MPEG)
Codec ID : XVID
Codec ID/Hint : XviD
Duration : 52mn 6s
Bit rate : 1 530 Kbps
Width : 720 pixels
Height : 400 pixels
Display aspect ratio : 16:9
Frame rate : 23.976 fps
Color space : YUV
Chroma subsampling : 4:2:0
Bit depth : 8 bits
Scan type : Progressive
Compression mode : Lossy
Bits/(Pixel*Frame) : 0.222
Stream size : 570 MiB (88%)
Writing library : XviD 1.2.1 (UTC 2008-12-04)
Audio #1
ID : 1
Format : MPEG Audio
Format version : Version 1
Format profile : Layer 3
Mode : Joint stereo
Mode extension : MS Stereo
Codec ID : 55
Codec ID/Hint : MP3
Duration : 52mn 6s
Bit rate mode : Constant
Bit rate : 192 Kbps
Channel(s) : 2 channels
Sampling rate : 48.0 KHz
Compression mode : Lossy
Stream size : 71.6 MiB (11%)
Alignment : Aligned on interleaves
Interleave, duration : 42 ms (1.00 video frame)
Interleave, preload duration : 504 ms

Скриншоты



Смотреть онлайн

[trackeroc.ru].12633.torrent 
Торрент: Зарегистрирован   [ 2016-06-10 22:17 ]

Скачать торрент

17 KB

Статус: проверено
Скачан: 12 раз
Размер: 6.25 GB
 

Похожие торренты
Форум Тема Автор Размер
Зарубежные сериалы Лонгмайр / Longmire / Сезон: 5 / Серии: 1-10 из 10 Admin 8.28 GB

_________________
[Профиль] [ЛС]
Показать сообщения:    
Ответить на тему

Текущее время: Сегодня 18:16

Часовой пояс: GMT + 4



Вы не можете начинать темы
Вы не можете отвечать на сообщения
Вы не можете редактировать свои сообщения
Вы не можете удалять свои сообщения
Вы не можете голосовать в опросах
Вы не можете прикреплять файлы к сообщениям
Вы можете скачивать файлы