Мегрэ расставляет сети / Maigret sets a trap [2016, Великобритания, детектив, HDTVRip-AVC]

Ответить на тему

Статистика раздачи [Обновить пиров]
Размер:  940 MB   |    Зарегистрирован:  7 месяцев 27 дней   |    Скачан:  1 раз

Полного источника не было: 4 месяца 18 дней

 
 
 
 
Автор Сообщение

Admin ®

Стаж: 7 месяцев 10 дней

Сообщений: 4447

Откуда: trackeroc.ru


Пост 07-Апр-2016 18:37

[Цитировать]

Мегрэ расставляет сети / Maigret sets a trap
Страна: Великобритания
Жанр: детектив
Год выпуска: 2016
Продолжительность: 01:26:27
Перевод: Субтитры (М.Васильев)
Cубтитры: русские
Оригинальная аудиодорожка: английский
Режиссер: Эшли Пирс / Ashley Pearce
В ролях: Роуэн Аткинсон, Эйдан Макардл, Руфус Райт, Софи Майер, Александр Кэмпбелл, Дэвид Доусон, Ребекка Найт, Фиона Шоу
Описание: В Париже происходят убийства молодых женщин. Почерк загадочного убийцы повторяется от преступления к преступлению. Комиссар Мегрэ готов на любой риск, если это поможет поймать маньяка. После очередного убийства, Мегрэ решает заманить преступника в ловушку...
Доп. информация: Полнометражный телевизионный фильм канала ITV.
Экранизация классической повести Ж.Сименона (известна на русском под названиями «Мегрэ расставляет сети», « Мегрэ расставляет ловушку», «Мегрэ ставит капкан»). Книга увидела свет в 1955 году и выдержала 5 экранизаций.
Эфир: 28 марта 2016 г.
Перевод подготовлен РГ Translators

Сэмпл
IMDB
КИНОПОИСК
Качество видео: HDTVRip-AVC
Формат видео: MP4
Видео: 1400 Kbps, 832x468 (16:9), 25 000 fps, AVC
Аудио: 112 Kbps, 48.0 KHz, 2 ch, AAC
Формат субтитров: softsub (SRT)

MediaInfo

General
Complete name : C:\Users\master\Documents\Downloads\мегрэ.mp4
Format : MPEG-4
Format profile : Base Media
Codec ID : isom
File size : 940 MiB
Duration : 1h 26mn
Overall bit rate : 1 521 Kbps
Writing application : Lavf54.63.104
Video
ID : 1
Format : AVC
Format/Info : Advanced Video Codec
Format profile : High@L3.0
Format settings, CABAC : Yes
Format settings, ReFrames : 4 frames
Codec ID : avc1
Codec ID/Info : Advanced Video Coding
Duration : 1h 26mn
Bit rate : 1 400 Kbps
Width : 832 pixels
Height : 468 pixels
Display aspect ratio : 16:9
Frame rate mode : Constant
Frame rate : 25.000 fps
Color space : YUV
Chroma subsampling : 4:2:0
Bit depth : 8 bits
Scan type : Progressive
Bits/(Pixel*Frame) : 0.144
Stream size : 866 MiB (92%)
Writing library : x264 core 123 r2189 35cf912
Encoding settings : cabac=1 / ref=3 / deblock=1:0:0 / analyse=0x3:0x133 / me=hex / subme=7 / psy=1 / psy_rd=1.00:0.00 / mixed_ref=1 / me_range=16 / chroma_me=1 / trellis=1 / 8x8dct=1 / cqm=0 / deadzone=21,11 / fast_pskip=1 / chroma_qp_offset=-2 / threads=12 / sliced_threads=0 / nr=0 / decimate=1 / interlaced=0 / bluray_compat=0 / constrained_intra=0 / bframes=3 / b_pyramid=2 / b_adapt=1 / b_bias=0 / direct=1 / weightb=1 / open_gop=0 / weightp=2 / keyint=250 / keyint_min=25 / scenecut=40 / intra_refresh=0 / rc_lookahead=40 / rc=2pass / mbtree=1 / bitrate=1400 / ratetol=1.0 / qcomp=0.60 / qpmin=10 / qpmax=51 / qpstep=4 / cplxblur=20.0 / qblur=0.5 / ip_ratio=1.40 / aq=1:1.00
Audio
ID : 2
Format : AAC
Format/Info : Advanced Audio Codec
Format profile : LC
Codec ID : 40
Duration : 1h 26mn
Bit rate mode : Constant
Bit rate : 112 Kbps
Channel(s) : 2 channels
Channel positions : Front: L R
Sampling rate : 48.0 KHz
Compression mode : Lossy
Stream size : 69.2 MiB (7%)

Скриншот c названием фильма

Скриншоты





Титры

1
00:02:27,600 --> 00:02:29,360
Как она?
2
00:02:29,400 --> 00:02:31,360
Температура.
3
00:02:33,520 --> 00:02:36,680
Без лекарства она
не заснет.
4
00:02:36,720 --> 00:02:40,120
- Я схожу.
- Не надо, я знаю, что купить.
5
00:02:44,040 --> 00:02:47,320
Уложу детей и схожу
в аптеку.
6
00:02:47,360 --> 00:02:49,360
Тихо, тихо...
7
00:03:57,560 --> 00:03:59,480
Жанвье.
8
00:04:13,960 --> 00:04:15,840
Войдите.
9
00:04:52,120 --> 00:04:53,560
Кто ее нашел?
10
00:04:53,600 --> 00:04:57,200
Мишель. Танцовщица.
11
00:04:57,240 --> 00:04:59,360
Шла на работу.
12
00:04:59,560 --> 00:05:01,280
Никого не видела.
13
00:05:01,680 --> 00:05:03,160
Все то же?
14
00:05:03,200 --> 00:05:05,160
Да.
Это не ограбление.
15
00:05:18,840 --> 00:05:20,840
Изнасилование?
16
00:05:22,000 --> 00:05:23,600
Нет.
Это опять наш маньяк.
17
00:05:34,000 --> 00:05:37,400
Две раны. В шею и грудь.
18
00:05:37,440 --> 00:05:39,640
Хватило бы и одной,
чтобы ее убить.
19
00:05:39,680 --> 00:05:41,880
Разрезал одежду на жертве.
Как обычно.
20
00:05:42,760 --> 00:05:46,920
Не понимаю, почему он
не использует стилет
21
00:05:46,960 --> 00:05:48,800
или тесак...
22
00:05:48,840 --> 00:05:52,240
Размер и глубина ран
указывают на нож...
23
00:05:52,280 --> 00:05:54,080
для резки бумаги...
24
00:05:54,360 --> 00:05:56,160
Семью известили?
25
00:05:57,200 --> 00:06:01,120
Я этим займусь.
Это мой район.


Смотреть онлайн

[trackerock.ru].12403.torrent 
Торрент: Зарегистрирован   [ 2016-04-07 18:37 ]

Скачать торрент

19 KB

Статус: проверено
Скачан: 14 раз
Размер: 940 MB
 

Похожие торренты
Форум Тема Автор Размер
Руководства запуска Steam игр по сети Dead by Daylight (1.2.1a) играть по сети Admin 5.42 GB
Российские Капроновые сети (1963) SATRip BiOS 976 MB
Руководства запуска Steam игр по сети Gauntlet (Update 10) играть по сети Admin 820 MB
Руководства запуска Steam игр по сети Resident Evil 5 Gold Edition играть по сети Admin 6.23 GB

_________________
[Профиль] [ЛС]
Показать сообщения:    
Ответить на тему

Текущее время: Сегодня 14:28

Часовой пояс: GMT + 4



Вы не можете начинать темы
Вы не можете отвечать на сообщения
Вы не можете редактировать свои сообщения
Вы не можете удалять свои сообщения
Вы не можете голосовать в опросах
Вы не можете прикреплять файлы к сообщениям
Вы можете скачивать файлы