Метод Фрейда (2012) (сезон 1, серии 1-12 из 12) SATRip

Ответить на тему

Статистика раздачи [Обновить пиров]
Размер:  7.45 GB   |    Зарегистрирован:  10 месяцев 24 дня   |    Скачан:  3 раза

Полного источника не было: 2 месяца 16 дней

 
 
 
 
Автор Сообщение

BiOS ®

Стаж: 2 года 7 месяцев

Сообщений: 1738

Откуда: Raccoon City


Пост 16-Янв-2016 21:42

[Цитировать]

Метод Фрейда - Телекомпания: Россия / Стар-медиа, Первый канал
Жанр: детектив, криминал
Режиссёр: Михаил Вайнберг
В ролях: Иван Охлобыстин, Наталия Антонова, Елена Николаева, Павел Прилучный, Артур Ваха, Алексей Гришин, Александр Кузнецов, Наталья Рычкова, Алла Подчуфарова, Маргарита Быстрякова, Александр Воробьёв, Вячеслав Яковлев, Виктор Маркин, Михаил Люлинецкий, Ольга Кузина, Иван Руденко и др.
Описание:
В следственный отдел прокуратуры введен специальный консультант Роман Фрейдин, психолог и профессиональный игрок в покер. В молодости Фрейдин объездил всю Россию и Европу, общался с людьми самых разных профессий. В расследовании преступлений он опирается на интуицию, использует научные методики, воссоздает биокинетические картины событий, психофизические портреты преступников и прогнозирует действия бандитов. Но базовым моментом для Романа является психология.
Продолжительность: 12 х ~ 00:50:23 серия
Качество видео: SATRip
Видео: DivX 5, 704 х 400, ~1597 Kbit/s
Аудио: MP3, 2.0, 128 Kbit/s

MediaInfo

Код:
Общее
Полное имя                       : D:\Метод Фрейда.2012.SATRip\Метод Фрейда.01.avi
Формат                           : AVI
Формат/Информация                : Audio Video Interleave
Размер файла                     : 627 Мбайт
Продолжительность                : 50 м.
Общий поток                      : 1738 Кбит/сек
Библиотека кодирования           : Boilsoft AVI tool build 1/release
Видео
Идентификатор                    : 0
Формат                           : MPEG-4 Visual
Профиль формата                  : Simple@L3
Параметр BVOP формата            : Нет
Параметр QPel формата            : Нет
Параметр GMC формата             : Без точки перехода
Параметр матрицы формата         : Default (H.263)
Идентификатор кодека             : DX50
Идентификатор кодека/Подсказка   : DivX 5
Продолжительность                : 50 м.
Битрейт                          : 1597 Кбит/сек
Ширина                           : 704 пикс.
Высота                           : 400 пикс.
Соотношение сторон               : 16:9
Частота кадров                   : 25,000 кадр/сек
Цветовое пространство            : YUV
Подвыборка цветности             : 4:2:0
Битовая глубина                  : 8 бит
Тип развёртки                    : Прогрессивная
Метод сжатия                     : С потерями
Бит/(Пиксели*Кадры)              : 0.227
Размер потока                    : 576 Мбайт (92%)
Библиотека кодирования           : XviD 1.2.1 (UTC 2008-12-04)
Аудио
Идентификатор                    : 1
Формат                           : MPEG Audio
Версия формата                   : Version 1
Профиль формата                  : Layer 3
Режим                            : Joint stereo
Расширение режима                : MS Stereo
Идентификатор кодека             : 55
Идентификатор кодека/Подсказка   : MP3
Продолжительность                : 50 м.
Вид битрейта                     : Постоянный
Битрейт                          : 128 Кбит/сек
Каналы                           : 2 канала
Частота                          : 48,0 КГц
Метод сжатия                     : С потерями
Размер потока                    : 46,1 Мбайт (7%)
Выравнивание                     : Соединение по промежуткам
Продолжительность промежутка     : 24  мс. (0,60 видеокадр)
Время предзагрузки промежутка    : 504 ms
Библиотека кодирования           : LAME3.98.2
-Скриншоты:


Смотреть онлайн

[trackeroc.ru].11026.torrent 
Торрент: Зарегистрирован   [ 2016-01-16 21:42 ]

Скачать торрент

20 KB

Статус: проверено
Скачан: 33 раз
Размер: 7.45 GB
 

Похожие торренты
Форум Тема Автор Размер
Arcade , Аркады , Платформеры Castle Crashers [v2.7+3DLC] [RUS / ENG] (2012) Admin 63 MB
RPG ролевые игры Risen 2: Dark Waters (2012) [Ru/Multi] (1.0.1210.0/dlc) License GOG Admin 6.6 GB
RPG ролевые игры Tales of Maj'Eyal (1.4.6 + 2 DLC) (2012) (Eng) [GOG] liaman 522 MB
MMORPG Blade and Soul (2012) [Ru] (2220294.03) License BiOS 13.97 GB
MMORPG Royal Quest: Время Крабить (2012) [Ru] (1.0.062) License BiOS 2.61 GB

_________________
[Профиль] [ЛС]
Показать сообщения:    
Ответить на тему

Текущее время: Сегодня 23:12

Часовой пояс: GMT + 4



Вы не можете начинать темы
Вы не можете отвечать на сообщения
Вы не можете редактировать свои сообщения
Вы не можете удалять свои сообщения
Вы не можете голосовать в опросах
Вы не можете прикреплять файлы к сообщениям
Вы можете скачивать файлы