Миньоны / Minions (2015) HDRip [H.264]

Ответить на тему

Статистика раздачи [Обновить пиров]
Размер:  1.37 GB   |    Зарегистрирован:  1 год 1 месяц   |    Скачан:  7 раз

Полного источника не было: 2 месяца

 
 
 
 
Автор Сообщение

BiOS ®

Стаж: 2 года 7 месяцев

Сообщений: 1733

Откуда: Raccoon City


Пост 24-Окт-2015 11:59

[Цитировать]

Миньоны / Minions - Производство: США, Illumination Entertainment
Жанр: Комедия
Режиссер: Кайл Балда, Пьер Соффи
Актеры: Сандра Буллок, Джон Хэмм, Майкл Китон, Эллисон Дженни, Стив Куган, Дженнифер Сондерс, Джеффри Раш, Стив Карелл, Пьер Соффин, Кэти Миксон
Описание:
Миньоны живут на планете на пару миллионов лет дольше нас. У них одна навязчивая идея — служить самой Гадкой личности из имеющихся в наличии. Динозавры, фараоны, Дракула, Наполеон — все они оказались недолговечны. И тогда миньоны рванули в Нью-Йорк. Их ждут деньги, власть, роковая суперзлодейка Скарлет Оверкилл и, конечно же, вкуснейшая «банана»! Во всяком случае, так им кажется.
Дата мировой премьеры: 17 июня 2015
Дата премьеры в России: 9 июля 2015, «UPI»
Дата премьеры в Украине: 9 июля 2015, «B&H Film Distribution Company»
Продолжительность: 01:30:58
Перевод: Дублированный (iTunes)
Видео: AVC/H.264, 720x384, ~1768 kbps
Аудио: Русский: AC3 / 5.1 / 48 kHz / 384 kbps - (iTunes)

Mediainfo

Код:
Общее
Уникальный идентификатор                 : 225668180694942092655400754192711786976 (0xA9C61C54D76988E6A66707F64B31A1E0)
Полное имя                               : Minions.2015.BDRip.x264.Rus-HDT.mkv
Формат                                   : Matroska
Версия формата                           : Version 2
Размер файла                             : 1,37 Гбайт
Продолжительность                        : 1 ч. 30 м.
Общий поток                              : 2153 Кбит/сек
Дата кодирования                         : UTC 2015-10-20 19:34:18
Программа кодирования                    : mkvmerge v7.9.0 ('Birds') 64bit
Библиотека кодирования                   : libebml v1.3.1 + libmatroska v1.4.2
Видео
Идентификатор                            : 1
Формат                                   : AVC
Формат/Информация                        : Advanced Video Codec
Профиль формата                          : High@L4.1
Параметр CABAC формата                   : Да
Параметр ReFrames формата                : 12 кадров
Идентификатор кодека                     : V_MPEG4/ISO/AVC
Продолжительность                        : 1 ч. 30 м.
Битрейт                                  : 1768 Кбит/сек
Ширина                                   : 720 пикселей
Высота                                   : 384 пикселя
Соотношение сторон                       : 1,85:1
Режим частоты кадров                     : Постоянный
Частота кадров                           : 23,976 кадра/сек
Цветовое пространство                    : YUV
Субдискретизация насыщенности            : 4:2:0
Битовая глубина                          : 8 бит
Тип развёртки                            : Прогрессивная
Бит/(Пиксели*Кадры)                      : 0.267
Размер потока                            : 1,10 Гбайт (80%)
Библиотека кодирования                   : x264 core 148 r2597 e86f3a1
Настройки программы                      : cabac=1 / ref=12 / deblock=1:-3:-3 / analyse=0x3:0x113 / me=umh / subme=10 / psy=1 / psy_rd=1.00:0.00 / mixed_ref=1 / me_range=32 / chroma_me=1 / trellis=2 / 8x8dct=1 / cqm=0 / deadzone=21,11 / fast_pskip=0 / chroma_qp_offset=-2 / threads=12 / lookahead_threads=1 / sliced_threads=0 / nr=0 / decimate=0 / interlaced=0 / bluray_compat=0 / constrained_intra=0 / bframes=9 / b_pyramid=2 / b_adapt=1 / b_bias=0 / direct=3 / weightb=1 / open_gop=1 / weightp=2 / keyint=240 / keyint_min=23 / scenecut=40 / intra_refresh=0 / rc_lookahead=40 / rc=2pass / mbtree=0 / bitrate=1768 / ratetol=1.0 / qcomp=0.60 / qpmin=0 / qpmax=69 / qpstep=4 / cplxblur=20.0 / qblur=0.5 / vbv_maxrate=50000 / vbv_bufsize=62500 / nal_hrd=none / filler=0 / ip_ratio=1.40 / pb_ratio=1.30 / aq=3:0.80
Язык                                     : English
Default                                  : Да
Forced                                   : Нет
Аудио
Идентификатор                            : 2
Формат                                   : AC-3
Формат/Информация                        : Audio Coding 3
Расширение режима                        : CM (complete main)
Параметр Endianness формата              : Big
Идентификатор кодека                     : A_AC3
Продолжительность                        : 1 ч. 30 м.
Вид битрейта                             : Постоянный
Битрейт                                  : 384 Кбит/сек
Каналы                                   : 6 каналов
Расположение каналов                     : Front: L C R, Side: L R, LFE
Частота                                  : 48,0 КГц
Метод сжатия                             : С потерями
Размер потока                            : 250 Мбайт (18%)
Язык                                     : Russian
Default                                  : Да
Forced                                   : Нет
Меню
00:00:00.000                             : en:00:00:00.000
00:05:39.839                             : en:00:05:39.839
00:11:28.938                             : en:00:11:28.938
00:16:55.139                             : en:00:16:55.139
00:22:28.430                             : en:00:22:28.430
00:26:59.034                             : en:00:26:59.034
00:32:54.639                             : en:00:32:54.639
00:37:28.872                             : en:00:37:28.872
00:40:58.831                             : en:00:40:58.831
00:45:29.310                             : en:00:45:29.310
00:49:24.086                             : en:00:49:24.086
00:53:43.053                             : en:00:53:43.053
00:57:04.921                             : en:00:57:04.921
01:01:36.943                             : en:01:01:36.943
01:05:54.701                             : en:01:05:54.701
01:07:55.238                             : en:01:07:55.238
01:11:19.150                             : en:01:11:19.150
01:15:32.653                             : en:01:15:32.653
01:21:12.826                             : en:01:21:12.826
01:28:24.758                             : en:01:28:24.758
Скриншоты:


Смотреть онлайн

[trackeroc.ru].9155.torrent 
Торрент: Зарегистрирован   [ 2015-10-24 11:59 ]

Скачать торрент

28 KB

Статус: проверено
Скачан: 47 раз
Размер: 1.37 GB
 

Похожие торренты
Форум Тема Автор Размер
Игры для Android Minions Paradise [v4.6.2107 + Mod] (2015) Android Admin 169 MB

_________________
[Профиль] [ЛС]
Показать сообщения:    
Ответить на тему

Текущее время: Сегодня 12:24

Часовой пояс: GMT + 4



Вы не можете начинать темы
Вы не можете отвечать на сообщения
Вы не можете редактировать свои сообщения
Вы не можете удалять свои сообщения
Вы не можете голосовать в опросах
Вы не можете прикреплять файлы к сообщениям
Вы можете скачивать файлы