Мистер Робот / Mr. Robot / Сезон: 1 / Серии: 1-10 [2015, WEB-DLRip]BaibaKo

Ответить на тему

Статистика раздачи [Обновить пиров]
Размер:  7.13 GB   |    Зарегистрирован:  1 год 3 месяца   |    Скачан:  2 раза
Сидов:  157  [  0 KB/s  ]   Личеров:  538  [  0 KB/s  ]   Подробная статистика пиров
   
 
Автор Сообщение

Admin ®

Стаж: 7 месяцев 14 дней

Сообщений: 4459

Откуда: trackeroc.ru


Пост 14-Июл-2015 10:16

[Цитировать]

МИСТЕР РОБОТ/Mr. Robot- Год выпуска: 2015
Страна: США
Жанр: драма, криминал
Продолжительность: 00:45:00
Перевод: Профессиональный (многоголосый закадровый) BaibaKo -Режиссёр: Нильс Арден Оплев / Niels Arden Oplev
В ролях: Рами Малек, Брюс Олтмен, Майкл Бушеми, Карли Чаикин, Самрат Чакрабарти, Портия Даблдэй, Маурицио Ферриньо, Майкл Гилл, Джереми С. Холм, Диллон Мэтьюз-Описание: История молодого программиста Эллиота, страдающего диссоциальным расстройством личности и решившего, что единственный приемлемый для него способ взаимодействия с людьми - это профессия хакера. Таким образом, он быстро оказывается в том самом месте, где пересекаются интересы его работодателя - фирмы, занимающейся кибербезопасностью, - и подпольных организаций, которые пытаются его завербовать с целью обрушения самых могучих американских корпораций.
Сюжет: Сюжет сериала построен вокруг истории нелюдимого хакера-отшельника, который страдает диссоциальным расстройством личности. Несмотря на этот коммуникативный недостаток, главный герой обладает обостренным чувством справедливости, поэтому берет на себя роль виртуального мстителя. С помощью своих способностей он по мере сил избавляет социум от корпоративных монстров и всякого отребья.-Доп. информация: Без рекламных ВидеоАудио вставок-Сэмпл-Качество: WEB-DLRip
Формат: AVI
Видео: XviD, 720x400 (16:9), 23,976 fps, ~1500 kbps
Аудио Rus: MP3, 48 kHz, 2 ch, 128 kbps
Аудио Eng: MP3, 48 kHz, 2 ch, 128 kbps
Субтитры: отсутствуют

Список серий

01. ПРИВЕТДРУГ.MOV (HELLOFRIEND.MOV)
02. ЕДИНИЦЫ-И-НУЛИ.MPEG (ONES-AND-ZEROES.MPEG)
03. д3баг.mkv (d3bug.mkv)
04. д3м0ны.mp4 (da3m0ns.mp4)
05. Разработки (3xpl0its.wmv)
06. Храбрый путник (br4ve-trave1er.asf)

MediaInfo

Код:
Формат                                   : AVI
Формат/Информация                        : Audio Video Interleave
Размер файла                             : 570 Мбайт
Продолжительность                        : 44 м.
Общий поток                              : 1777 Кбит/сек
Программа кодирования                    : VirtualDubMod 1.5.10.3 (build 2550/release)
Библиотека кодирования                   : VirtualDubMod build 2550/release
Видео
Идентификатор                            : 0
Формат                                   : MPEG-4 Visual
Профиль формата                          : Advanced Simple@L5
Параметр BVOP формата                    : 1
Параметр QPel формата                    : Нет
Параметр GMC формата                     : Без точки перехода
Параметр матрицы формата                 : Default (H.263)
Идентификатор кодека                     : XVID
Идентификатор кодека/Подсказка           : XviD
Продолжительность                        : 44 м.
Битрейт                                  : 1507 Кбит/сек
Ширина                                   : 720 пикселей
Высота                                   : 400 пикселей
Соотношение сторон                       : 16:9
Частота кадров                           : 23,976 кадра/сек
Цветовое пространство                    : YUV
Субдискретизация насыщенности            : 4:2:0
Битовая глубина                          : 8 бит
Тип развёртки                            : Прогрессивная
Метод сжатия                             : С потерями
Бит/(Пиксели*Кадры)                      : 0.218
Размер потока                            : 483 Мбайт (85%)
Библиотека кодирования                   : XviD 1.2.1 (UTC 2008-12-04)
Аудио #1
Идентификатор                            : 1
Формат                                   : MPEG Audio
Версия формата                           : Version 1
Профиль формата                          : Layer 3
Режим                                    : Joint stereo
Расширение режима                        : MS Stereo
Идентификатор кодека                     : 55
Идентификатор кодека/Подсказка           : MP3
Продолжительность                        : 44 м.
Вид битрейта                             : Постоянный
Битрейт                                  : 128 Кбит/сек
Каналы                                   : 2 канала
Частота                                  : 48,0 КГц
Метод сжатия                             : С потерями
Размер потока                            : 41,1 Мбайт (7%)
Выравнивание                             : Соединение по промежуткам
Продолжительность промежутка             : 42  мс. (1,00 видеокадр)
Время предзагрузки промежутка            : 504  мс.
Аудио #2
Идентификатор                            : 2
Формат                                   : MPEG Audio
Версия формата                           : Version 1
Профиль формата                          : Layer 3
Режим                                    : Joint stereo
Расширение режима                        : MS Stereo
Идентификатор кодека                     : 55
Идентификатор кодека/Подсказка           : MP3
Продолжительность                        : 44 м.
Вид битрейта                             : Постоянный
Битрейт                                  : 128 Кбит/сек
Каналы                                   : 2 канала
Частота                                  : 48,0 КГц
Метод сжатия                             : С потерями
Размер потока                            : 41,1 Мбайт (7%)
Выравнивание                             : Соединение по промежуткам
Продолжительность промежутка             : 42  мс. (1,00 видеокадр)
Время предзагрузки промежутка            : 504  мс.

Скриншоты

Внимание! Раздача ведётся путём добавления новых серий

Внимание! Раздача ведётся путём добавления новых серий; при каждом добавлении создаётся новый торрент. Чтобы начать докачку новой серии, пользователям необходимо сделать следующее:
(1) остановить скачивание,
(2) удалить старый торрент у себя из клиента (старые серии удалять не надо),
(3) скачать новый торрент и запустить его у себя в клиенте вместо старого, при этом указать клиенту путь в старую папку куда и должно происходить скачивание новых серий.
Ваш клиент при этом должен произвести хеширование (проверку) старой папки (если не производит сам - помогите ему сделать это), и будет докачивать только те серии которых у вас ещё нет. Старые серии при этом не удаляются, а продолжают раздаваться!
Eсли вы уже удалили старые серии, то предотвратить повторную закачку старых серий можно, отжав галочку в соответствующих местах при запуске нового торрента. По возможности, желательно не удалять старые серии как можно дольше чтобы релизёр не столько продолжал раздавать старые серии, а смог сконцентрироваться на новых


Смотреть онлайн

[trackeroc.ru].6938.torrent 
Торрент: Зарегистрирован   [ 2015-09-05 12:57 ]

Скачать торрент

37 KB

Статус: проверено
Скачан: 9 раз
Размер: 7.13 GB
 

Похожие торренты
Форум Тема Автор Размер
Зарубежные сериалы Мистер Хутен и Леди / Hooten & the Lady (2016) HDTVRip (сезон 1, серии 1-8 из 8) Jaskier BiOS 3.07 GB
Зарубежные сериалы Мистер Робот / Mr. Robot (2016) WEB-DLRip (сезон 2, серии 1-11 из 12) Admin 7.12 GB
Детективы криминал Мистер Холмс / Mr. Holmes (2015) BDRip Admin 1.46 GB
Зарубежные сериалы Мистер Робот / Mr. Robot (2015) WEB-DLRip (сезон 1, серии 1-10) LostFilm Admin 3.46 GB

_________________


Последний раз редактировалось: Admin (2015-09-05 12:57), всего редактировалось 5 раз(а)
[Профиль] [ЛС]

vladdd183

Стаж: 1 год 4 месяца

Сообщений: 7


Пост 25-Июл-2015 23:47 (спустя 11 дней)

[Цитировать]

Как раз по мне. 

_________________
Пираты в атаку!!! Качаем игры на халяву!!!
[Профиль] [ЛС]
Показать сообщения:    
Ответить на тему

Текущее время: Сегодня 05:53

Часовой пояс: GMT + 4



Вы не можете начинать темы
Вы не можете отвечать на сообщения
Вы не можете редактировать свои сообщения
Вы не можете удалять свои сообщения
Вы не можете голосовать в опросах
Вы не можете прикреплять файлы к сообщениям
Вы можете скачивать файлы