Мистер Судьба / Mr. Destiny (1990) WEB-DLRip

Ответить на тему

Статистика раздачи [Обновить пиров]
Размер:  1.46 GB   |    Зарегистрирован:  2 месяца 17 дней   |    Скачан:  1 раз

Полного источника не было: 17 дней

 
   
 
 
 
Автор Сообщение

BiOS ®

Стаж: 2 года 11 месяцев

Сообщений: 1900

Откуда: Raccoon City


Пост 11-Янв-2017 10:37

[Цитировать]

Мистер Судьба / Mr. Destiny - Производство: США
Жанр: Комедия
Режиссер: Джеймс Орр
Актеры: Джеймс Белуши, Линда Хэмилтон, Майкл Кейн, Джон Ловиц, Харт Бокнер, Рене Руссо, Джэй О. Сэндерс, Мори Чайкин, Пэт Корли, Даглас Сил ...
Описание: У простого служащего Ларри ломается машина. Он останавливается у придорожного кафе и в ожидании помощи решает пропустить стаканчик. Ларри жалуется бармену на свою неудавшуюся жизнь: если бы все сложилось иначе… Таинственный человек за стойкой молча выслушал его историю. С этого момента судьба Ларри полностью изменилась. Теперь он — один из управляющих преуспевающей фирмы, у него роскошные автомобили и красавица жена. У счастливчика осталось только одно желание… вернуться в прошлое...
Возраст: 12+ (зрителям, достигшим 12 лет)
Рейтинг MPAA: PG-13 (детям до 13 лет просмотр нежелателен)
Продолжительность: 01:50:28
Качество видео: WEB-DLRip
Перевод: Профессиональный многоголосый
Субтитры: Отсутствуют
Видео: MPEG4, XviD, 720x384 (1.875), 23.976 fps, 1 692 Kbps (0.255 bit/pixel)
Аудио: AC-3, 48.0 KHz, 2 ch, 192 Kbps, CBR

MediaInfo:

Код:
Общее
Формат                                   : AVI
Формат/Информация                        : Audio Video Interleave
Размер файла                             : 1,46 Гбайт
Продолжительность                        : 1 ч. 50 м.
Общий поток                              : 1893 Кбит/сек
Программа кодирования                    : VirtualDubMod 1.5.10.2 (build 2540/release)
Библиотека кодирования                   : VirtualDubMod build 2540/release
Видео
Идентификатор                            : 0
Формат                                   : MPEG-4 Visual
Профиль формата                          : Advanced Simple@L5
Параметр BVOP формата                    : 2
Параметр QPel формата                    : Нет
Параметр GMC формата                     : Без точки перехода
Параметр матрицы формата                 : Default (MPEG)
Идентификатор кодека                     : XVID
Идентификатор кодека/Подсказка           : XviD
Продолжительность                        : 1 ч. 50 м.
Битрейт                                  : 1692 Кбит/сек
Ширина                                   : 720 пикселей
Высота                                   : 384 пикселя
Соотношение сторон                       : 1,85:1
Частота кадров                           : 23,976 (23976/1000) кадра/сек
Цветовое пространство                    : YUV
Субдискретизация насыщенности            : 4:2:0
Битовая глубина                          : 8 бит
Тип развёртки                            : Прогрессивная
Метод сжатия                             : С потерями
Бит/(Пиксели*Кадры)                      : 0.255
Размер потока                            : 1,31 Гбайт (89%)
Библиотека кодирования                   : XviD 64
Аудио
Идентификатор                            : 1
Формат                                   : AC-3
Формат/Информация                        : Audio Coding 3
Расширение режима                        : CM (complete main)
Параметр Endianness формата              : Big
Идентификатор кодека                     : 2000
Продолжительность                        : 1 ч. 50 м.
Вид битрейта                             : Постоянный
Битрейт                                  : 192 Кбит/сек
Каналы                                   : 2 канала
Расположение каналов                     : Front: L R
Частота                                  : 48,0 КГц
Частота кадров                           : 31,250 кадров/сек (1536 spf)
Метод сжатия                             : С потерями
Размер потока                            : 152 Мбайт (10%)
Выравнивание                             : Разделение по промежуткам
Продолжительность промежутка             : 42  мс. (1,00 видеокадр)
Время предзагрузки промежутка            : 500  мс.
-Скриншоты:


Смотреть онлайн


[trackeroc.ru].17811.torrent 
Торрент: Зарегистрирован   [ 2017-01-11 10:37 ]

Скачать торрент

15 KB

Статус: проверено
Скачан: 8 раз
Размер: 1.46 GB
 

Похожие торренты
Форум Тема Автор Размер
Зарубежные сериалы Мистер Хутен и Леди Александра / Hooten & the Lady (2016) WEB-DLRip (сезон 1, серии 1-8 из 8) ТВ3 BiOS 4.32 GB
Playstation 3 (PS3) - Игры Uncharted: Drake's Fortune / Uncharted: Судьба Дрейка (2007) [PS3] [EUR] 1.94 [Cobra ODE / E3 ODE PRO ISO] [Repack] [Ru/Multi] | R.G.DShock BiOS 20.59 GB
Зарубежные сериалы Мистер Робот / Mr. Robot (2016) WEB-DLRip (сезон 2, серии 1-11 из 12) Admin 7.12 GB
Детективы криминал Мистер Холмс / Mr. Holmes (2015) BDRip Admin 1.46 GB
[Профиль] [ЛС]
Показать сообщения:    
Ответить на тему

Текущее время: Сегодня 13:56

Часовой пояс: GMT + 4



Вы не можете начинать темы
Вы не можете отвечать на сообщения
Вы не можете редактировать свои сообщения
Вы не можете удалять свои сообщения
Вы не можете голосовать в опросах
Вы не можете прикреплять файлы к сообщениям
Вы можете скачивать файлы