Млечный путь (2015) WEBRip [H.264] [MP4|1024x428]

Ответить на тему

Статистика раздачи [Обновить пиров]
Размер:  1.48 GB   |    Зарегистрирован:  11 дней   |    Скачан:  1 раз

Полного источника не было: 13 часов

 
 
 
 
Автор Сообщение

BiOS ®

Стаж: 2 года 9 месяцев

Сообщений: 1827

Откуда: Raccoon City


Пост 10-Янв-2017 14:17

[Цитировать]

Млечный путь
- Производство: Россия / Production Value WorldWide
Жанр: Комедия
Режиссер: Анна Матисон
Актеры: Сергей Безруков, Марина Александрова, Владимир Меньшов, Анастасия Безрукова, Петр Терещенко, Владимир Войтюк, Валентин Гафт, Денис Мацуев, Дмитрий Соколов, Бэлик Дамбаев
Описание:
В браке Андрея и Нади что-то сломалось. Он отправляется жить в Москву, она с детьми остается в Иркутске. В канун Нового Года семья снова собирается вместе, но, похоже, в последний раз. Слово «развод» звучит вполне определенно. 1-го января, казалось бы, всё уже решено, но целая цепочка событий, — смешных, грустных, иногда даже странных и необъяснимых — будто удерживает семью от неправильного шага. Все они потеряются и найдут друг друга в эту волшебную ночь на острове Ольхон и поймут, что прошлые обиды легко забыть, а в жизни есть нечто куда более важное.
Возраст: 12+ (зрителям, достигшим 12 лет)
Релиз от: NNMClub
Продолжительность: 01:29:44
Качество видео: WEBRip
Видео: AVC/H.264 (Main@L3.1), 1024x428 (2.40:1), 25.000 fps, 2 200 Kbps (0.201 bit/pixel)
Аудио #1: AAC, 2 канала, 160 Кбит/сек - русский

Mediainfo:

Код:
General
Format                                   : MPEG-4
Format profile                           : Base Media / Version 2
Codec ID                                 : mp42 (mp42/isom)
File size                                : 1.48 GiB
Duration                                 : 1 h 29 min
Overall bit rate mode                    : Variable
Overall bit rate                         : 2 362 kb/s
Movie name                               : Млечный путь
ContentType                              : Short Film
Encoded date                             : UTC 2017-01-09 14:58:20
Tagged date                              : UTC 2017-01-09 15:07:06
Cover                                    : Yes
Video
ID                                       : 1
Format                                   : AVC
Format/Info                              : Advanced Video Codec
Format profile                           : Main@L3.1
Format settings, CABAC                   : Yes
Format settings, ReFrames                : 3 frames
Codec ID                                 : avc1
Codec ID/Info                            : Advanced Video Coding
Duration                                 : 1 h 29 min
Bit rate                                 : 2 200 kb/s
Width                                    : 1 024 pixels
Height                                   : 428 pixels
Display aspect ratio                     : 2.40:1
Frame rate mode                          : Constant
Frame rate                               : 25.000 FPS
Color space                              : YUV
Chroma subsampling                       : 4:2:0
Bit depth                                : 8 bits
Scan type                                : Progressive
Bits/(Pixel*Frame)                       : 0.201
Stream size                              : 1.38 GiB (93%)
Writing library                          : x264 core 148 r2744+55 950084e t_mod_Custom [8-bit@all X86_64]
Encoding settings                        : cabac=1 / ref=3 / deblock=1:-3:-3 / analyse=0x1:0x111 / me=umh / subme=7 / psy=1 / fade_compensate=0.00 / psy_rd=1.00:0.20 / mixed_ref=1 / me_range=32 / chroma_me=1 / trellis=2 / 8x8dct=0 / cqm=0 / deadzone=21,11 / fast_pskip=0 / chroma_qp_offset=-3 / threads=12 / lookahead_threads=2 / sliced_threads=0 / nr=0 / decimate=1 / interlaced=0 / bluray_compat=0 / constrained_intra=0 / fgo=0 / bframes=2 / b_pyramid=1 / b_adapt=2 / b_bias=0 / direct=3 / weightb=1 / open_gop=0 / weightp=2 / keyint=250 / keyint_min=25 / scenecut=40 / intra_refresh=0 / rc_lookahead=50 / rc=2pass / mbtree=1 / bitrate=2200 / ratetol=1.0 / qcomp=0.60 / qpmin=0:0:0 / qpmax=69:69:69 / qpstep=4 / cplxblur=20.0 / qblur=0.5 / vbv_maxrate=10000 / vbv_bufsize=10000 / nal_hrd=none / filler=0 / ip_ratio=1.40 / aq=3:0.85 / aq-sensitivity=10.00 / aq-factor=1.00:1.00:1.00 / aq2=1:0.90 / aq2-sensitivity=15.00 / aq2-factor=1.00:1.00:1.00 / aq3=4:[0.50:0.50]:[0.50:0.50]:[0.50:0.50]:[0.50:0.50] / aq3-sensitivity=10.00 / aq3-factor=[1.00:1.00]:[1.00:1.00]:[1.00:1.00] / aq3-boundary=192:64:24
Encoded date                             : UTC 2017-01-09 14:58:20
Tagged date                              : UTC 2017-01-09 15:07:06
Color range                              : Limited
Color primaries                          : BT.709
Transfer characteristics                 : BT.709
Matrix coefficients                      : BT.709
Audio
ID                                       : 2
Format                                   : AAC
Format/Info                              : Advanced Audio Codec
Format profile                           : LC
Codec ID                                 : 40
Duration                                 : 1 h 29 min
Bit rate mode                            : Variable
Bit rate                                 : 157 kb/s
Maximum bit rate                         : 251 kb/s
Channel(s)                               : 2 channels
Channel positions                        : Front: L R
Sampling rate                            : 44.1 kHz
Frame rate                               : 43.066 FPS (1024 spf)
Compression mode                         : Lossy
Stream size                              : 101 MiB (7%)
Language                                 : Russian
Default                                  : Yes
Alternate group                          : 1
Encoded date                             : UTC 2017-01-09 14:58:20
Tagged date                              : UTC 2017-01-09 15:07:06
-Скриншоты:


Смотреть онлайн


[trackeroc.ru].17769.torrent 
Торрент: Зарегистрирован   [ 2017-01-10 14:17 ]

Скачать торрент

16 KB

Статус: проверено
Скачан: 7 раз
Размер: 1.48 GB
 

Admin (10-янв-17)
Похожие торренты
Форум Тема Автор Размер
Зомби игры Survival Horror Killing Floor 2 + SDK [v1050] [RUS|ENG] (2015) Repack от W.A.L Admin 18.03 GB
Arcade , Аркады , Платформеры 12 Is Better Than 6 (v19.01.2017) [RUS|ENG] (2015) Admin 163 MB
Мини - игры Моя милая Лиза (2015) [v.1.11][RUS][L] max+100600 91 MB
Песочницы , Sandbox Prison Architect [Update 11f] (2015) (RUS|ENG) GOG Admin 691 MB
Инди Sandbox (Linux+Mac) Prison Architect [Update 11f] (2015) [Ru/Multi] GOG Admin 1024 MB

_________________
[Профиль] [ЛС]
Показать сообщения:    
Ответить на тему

Текущее время: Сегодня 01:31

Часовой пояс: GMT + 4



Вы не можете начинать темы
Вы не можете отвечать на сообщения
Вы не можете редактировать свои сообщения
Вы не можете удалять свои сообщения
Вы не можете голосовать в опросах
Вы не можете прикреплять файлы к сообщениям
Вы можете скачивать файлы