Modern Talking - 25 Jahre (2010) SATRip

Ответить на тему

Статистика раздачи [Обновить пиров]
Размер:  2.9 GB   |    Зарегистрирован:  1 год   |    Скачан:  2 раза

Полного источника не было: 2 месяца 1 день

 
 
 
 
Автор Сообщение

BiOS ®

Стаж: 2 года 7 месяцев

Сообщений: 1731

Откуда: Raccoon City


Пост 13-Ноя-2015 02:48

[Цитировать]

Modern Talking - 25 Jahre - Год : 2010
Жанр: Концерт, Документальный-Описание:
Легендарная немецкая группа "Modern Talking" отмечает своё 25-летие! К юбилею самой популярной поп-группы Европы, немецкий канал NDR снял специальную программу "Modern Talking - четверть века!" Нам покажут уникальные кадры и комментарии от самих Дитера Болена и Томаса Андреса, а также их команды и всех, кто помог этому проекту состояться. Вы узнаете откуда взялось название группы, и как всего за полчаса был записан их самый известный хит "You're My Heart, You're My Soul". А также узнаете неизвестные ранее подробности триумфального возвращения группы на сцену в 1998 году.-Русский перевод выполнен командой сайта Modern-Talking.ru-Рeжиссер: Корнелия Кост
Состав: Дитер Болен, Томас Андрес-Продолжительность: 00:59:40
Пeревод: Одноголосый закадровый-Видеокодек: MPEG-2
Битрейт видео: ~6 464 kbps
Размер кадра: 720x576
Качество видео: SATRip
Аудиокодек: MP2 2.0
Битрейт аудио: 192 kbps CBR-

MediaInfo

Код:
Полное имя                               : Z:\Концерты\25 Jahre Modern Talking\VIDEO_TS\VTS_01_1.VOB
Формат                                   : MPEG-PS
Размер файла                             : 1024 Мбайт
Продолжительность                        : 21 м.
Режим общего битрейта                    : Переменный
Общий поток                              : 6791 Кбит/сек
Видео
Идентификатор                            : 224 (0xE0)
Формат                                   : MPEG Video
Версия формата                           : Version 2
Профиль формата                          : Main@Main
Параметр BVOP формата                    : Да
Параметр матрицы формата                 : Выборочная
Параметр GOP формата                     : Variable
Продолжительность                        : 21 м.
Вид битрейта                             : Переменный
Битрейт                                  : 6464 Кбит/сек
Максимальный битрейт                     : 8000 Кбит/сек
Ширина                                   : 720 пикселей
Высота                                   : 576 пикселей
Соотношение сторон                       : 16:9
Частота кадров                           : 25,000 кадров/сек
Стандарт вещания                         : PAL
Цветовое пространство                    : YUV
Субдискретизация насыщенности            : 4:2:0
Битовая глубина                          : 8 бит
Тип развёртки                            : Чересстрочная
Порядок развёртки                        : Верхнее поле первое
Метод сжатия                             : С потерями
Бит/(Пиксели*Кадры)                      : 0.623
Размер потока                            : 975 Мбайт (95%)
Основные цвета                           : BT.601 PAL
Характеристики трансфера                 : BT.470 System B, BT.470 System G
Коэффициенты матрицы                     : BT.601
Аудио
Идентификатор                            : 192 (0xC0)
Формат                                   : MPEG Audio
Версия формата                           : Version 1
Профиль формата                          : Layer 2
Продолжительность                        : 21 м.
Вид битрейта                             : Постоянный
Битрейт                                  : 192 Кбит/сек
Каналы                                   : 2 канала
Частота                                  : 48,0 КГц
Метод сжатия                             : С потерями
Размер потока                            : 28,9 Мбайт (3%)
-Скриншоты:


[trackeroc.ru].9712.torrent 
 СЕРЕБРЯНАЯ РАЗДАЧА! СКАЧАННОЕ ЗАСЧИТЫВАЕТСЯ ТОЛЬКО НАПОЛОВИНУ! 
Торрент: Зарегистрирован   [ 2015-11-13 02:48 ]

Скачать торрент

16 KB

Статус: проверено
Скачан: 31 раз
Размер: 2.9 GB
 

max+100600 (13-ноя-15)
Похожие торренты
Форум Тема Автор Размер
Shooter шутеры стрелялки Call of Duty: Modern Warfare - Remastered (2016) [Ru/En] (1.4.81) License CODEX BiOS 43.27 GB
Русификаторы для игр Call of Duty: Modern Warfare Remastered & Call of Duty: Infinite Warfare (2016) [Ru/Multi] R.G. Origins [Language Pack] BiOS 38.23 GB
Action экшены Call of Duty: Modern Warfare - Remastered (2016) [RUS][ENG][Rip] от R.G. Механики max+100600 29.25 GB
Shooter шутеры стрелялки Call of Duty: Modern Warfare - Remastered (2016) [Ru/En] (1.4.81/upd1) Repack =nemos= BiOS 34.77 GB
Shooter шутеры стрелялки Call of Duty: Modern Warfare Remastered (2016) [RUS] [RePack] от SEYTER max+100600 33.52 GB

_________________
[Профиль] [ЛС]
Показать сообщения:    
Ответить на тему

Текущее время: Сегодня 14:02

Часовой пояс: GMT + 4



Вы не можете начинать темы
Вы не можете отвечать на сообщения
Вы не можете редактировать свои сообщения
Вы не можете удалять свои сообщения
Вы не можете голосовать в опросах
Вы не можете прикреплять файлы к сообщениям
Вы можете скачивать файлы