Modern War Gear Solid / Современная Война Жёсткий Механизм / Серии: 1-5 из 5 (+2 бонуса) [2011] [HDTVRip] DUB (StopGame)

Ответить на тему

Статистика раздачи [Обновить пиров]
Размер:  632 MB   |    Зарегистрирован:  5 месяцев 9 дней   |    Скачан:  0 раз

Полного источника не было: 21 день

 
 
 
 
Автор Сообщение

BiOS ®

Стаж: 2 года 7 месяцев

Сообщений: 1742

Откуда: Raccoon City


Пост 05-Ноя-2015 04:51

[Цитировать]

- Modern War Gear Solid / Современная Война Жёсткий Механизм
«Modern Warfare Meets Metal Gear Solid»
-- Год выпуска: 2011
Страна: США
Кинокомпания: Beat Down Boogie
Жанр: Боевик, Пародия, Игровое видео
Продолжительность: ~ 00:39:00
Перевод: Любительский (многоголосый, закадровый) (StopGame)

Субтитры: Отсутствуют
Режиссер: Мика Мур
В ролях: Алена Кох, Крис Рогус, Кендра Адамс, Дилан Александр, Джош Аллен, Майкл Мелвин, Майк Бин, Брайан Ли, Энди Бучер, Кристи Джонсон, Стив Брент, Эндрю Комсток, Мика Мур, Тимоти Корбетт, Тим Эллвуд, Дэвид Голдфарб, Джарод Кирни, Keith Kittrelle, Мэттью Самнер, Кристофер Дж. Мур и др--Описание: Культовые герои Modern Warfare и Metal Gear Solid встречаются на ваших глазах! В центре сюжета два героя, которые известны нам по играм Modern Warfare 2 (Призрак) и Metal Gear Solid (Змей), они совсем не похожи, не взглядом на мир, не методом действия, но их связала одна цель, общий враг, некая частная организация Activistsun, которая изобрела новое, мощное оружие Modern Gear и собирается его продавать террористическим организациям.--Качество: HDTVRip
Формат: MP4
Видео: MPEG4, 1280x720 (16:9), 25.00fps 1549kbps
Аудио: AAC (LC), 44100Hz 192kbps

Mediainfo

Код:
Общее
Полное имя : C:\Modern War Gear Solid - Культовый сериал [специально для www.trackeroc.ru].mp4
Формат : MPEG-4
Профиль формата : Base Media / Version 2
Идентификатор кодека : mp42 (isom/mp42)
Размер файла : 487 Мбайт
Продолжительность : 39 м.
Режим общего битрейта : Переменный
Общий поток : 1744 Кбит/сек
Дата кодирования : UTC 2013-12-13 06:20:12
Дата пометки : UTC 2013-12-13 06:20:12
gsst : 0
gstd : 2340780
Видео
Идентификатор : 1
Формат : AVC
Формат/Информация : Advanced Video Codec
Профиль формата : High@L3.1
Параметр CABAC формата : Да
Параметр ReFrames формата : 1 кадр
Идентификатор кодека : avc1
Идентификатор кодека/Информация : Advanced Video Coding
Продолжительность : 39 м.
Битрейт : 1549 Кбит/сек
Максимальный битрейт : 6302 Кбит/сек
Ширина : 1280 пикселей
Высота : 720 пикселей
Соотношение сторон : 16:9
Режим частоты кадров : Постоянный
Частота кадров : 25,000 кадров/сек
Цветовое пространство : YUV
Субдискретизация насыщенности : 4:2:0
Битовая глубина : 8 бит
Тип развёртки : Прогрессивная
Бит/(Пиксели*Кадры) : 0.067
Размер потока : 432 Мбайт (89%)
Дата пометки : UTC 2013-12-13 06:22:15
Аудио
Идентификатор : 2
Формат : AAC
Формат/Информация : Advanced Audio Codec
Профиль формата : LC
Идентификатор кодека : 40
Продолжительность : 39 м.
Вид битрейта : Переменный
Битрейт : 192 Кбит/сек
Максимальный битрейт : 203 Кбит/сек
Каналы : 2 канала
Расположение каналов : Front: L R
Частота : 44,1 КГц
Частота кадров : 43,066 кадра/сек (1024 spf)
Метод сжатия : С потерями
Размер потока : 53,6 Мбайт (11%)
Заголовок : IsoMedia File Produced by Google, 5-11-2011
Дата кодирования : UTC 2013-12-13 06:21:26
Дата пометки : UTC 2013-12-13 06:22:15
Скриншоты:


Смотреть онлайн

[trackeroc.ru].9528.torrent 
 ЗОЛОТАЯ РАЗДАЧА! СКАЧАННОЕ НЕ ЗАСЧИТЫВАЕТСЯ! 
Торрент: Зарегистрирован   [ 2016-07-02 10:51 ]

Скачать торрент

13 KB

Статус: проверено
Скачан: 66 раз
Размер: 632 MB
 

Admin (05-ноя-15)
Похожие торренты
Форум Тема Автор Размер
Shooter шутеры стрелялки Call of Duty: Modern Warfare - Remastered (2016) [Ru/En] (1.4.81) License CODEX BiOS 43.27 GB
Русификаторы для игр Call of Duty: Modern Warfare Remastered & Call of Duty: Infinite Warfare (2016) [Ru/Multi] R.G. Origins [Language Pack] BiOS 38.23 GB
Action экшены Metal Gear Solid V: The Phantom Pain (2015) [RUS][ENG][MULTi8][L| Steam-Rip] от Fisher max+100600 28.63 GB
Action экшены Call of Duty: Modern Warfare - Remastered (2016) [RUS][ENG][Rip] от R.G. Механики max+100600 29.25 GB
Shooter шутеры стрелялки Call of Duty: Modern Warfare - Remastered (2016) [Ru/En] (1.4.81/upd1) Repack =nemos= BiOS 34.77 GB

_________________
[Профиль] [ЛС]
Показать сообщения:    
Ответить на тему

Текущее время: Сегодня 15:49

Часовой пояс: GMT + 4



Вы не можете начинать темы
Вы не можете отвечать на сообщения
Вы не можете редактировать свои сообщения
Вы не можете удалять свои сообщения
Вы не можете голосовать в опросах
Вы не можете прикреплять файлы к сообщениям
Вы можете скачивать файлы