Молчание Ягнят / The Silence of the Lambs (1991) HDRip

Ответить на тему

Статистика раздачи [Обновить пиров]
Размер:  1.46 GB   |    Зарегистрирован:  1 год   |    Скачан:  0 раз

Полного источника не было: 1 год

 
 
 
 
Автор Сообщение

BiOS ®

Стаж: 2 года 7 месяцев

Сообщений: 1738

Откуда: Raccoon City


Пост 17-Ноя-2015 11:13

[Цитировать]

Молчание Ягнят / The Silence of the Lambs- Русское название: Молчание ягнят
Оригинальное название: The Silence of the Lambs
Производство: США
Год выпуска: 1991
Жанр: Триллер, Криминал, Детектив
Описание фильма:
ФБР занимается расследованием серии зверских убийств, совершённых маньяком «Буффало-Биллом». Не находя зацепок, ФБР решает обратиться за советом к другому маньяку — отбывающему пожизненный срок психиатру Ганнибалу-«Каннибалу» Лектеру. Для беседы к нему направляется молодая слушательница академии ФБР Кларисса Старлинг. Между Лектером и Старлинг возникает контакт, Лектер начинает играть с ней в странные психологические игры: он соглашается помогать Клариссе лишь в том случае, если она откроет ему подробности своей жизни. Тем временем убийства продолжаются, Буффало Билл на свободе. Старлинг открывает Лектеру часть своих детских воспоминаний, связаных с сильными психологическими переживаниями. Для Лектера это сродни психологической подпитки. В качестве поощрения за вынужденную откровенность Старлинг, он обращает её внимание на некоторые детали в деле, опираясь на которые, та в конечном итоге и находит Буффало-Билла. Однако сотрудничество властей с Лектером заканчивается трагически — маньяк совершает побег, оставляя за собой трупы охранников и бригады скорой помощи.
Режиссер: Джонатан Демм
Актеры: Джоди Фостер, Энтони Хопкинс, Скотт Гленн, Роджер Кормэн, Чарлз Нэпьер, Дайэн Бэйкер, Кэйси Леммонс, Энтони Хилд, Брук Смит, Тед Ливайн
Продолжительность: 01:58:31
Перевод: Дублированный
Видеокодек: Xvid
Битрейт видео: ~1430 Кбит/с
Размер кадра: 688x368
Качество видео: HDRip
Аудиокодек: AC3 5.1
Битрейт аудио: 320 Кбит/с

MediaInfo:

Код:
Общее
Полное имя                               : C:\Justlan\Молчание ягнят\Molchanie yagnyat.avi
Формат                                   : AVI
Формат/Информация                        : Audio Video Interleave
Размер файла                             : 1,46 Гбайт
Продолжительность                        : 1 ч. 58 м.
Общий поток                              : 1759 Кбит/сек
Программа кодирования                    : VirtualDubMod 1.5.10.2
Видео
Идентификатор                            : 0
Формат                                   : MPEG-4 Visual
Профиль формата                          : Advanced Simple@L5
Параметр BVOP формата                    : 1
Параметр QPel формата                    : Нет
Параметр GMC формата                     : Без точки перехода
Параметр матрицы формата                 : Выборочная
Идентификатор кодека                     : XVID
Идентификатор кодека/Подсказка           : XviD
Продолжительность                        : 1 ч. 58 м.
Битрейт                                  : 1430 Кбит/сек
Ширина                                   : 688 пикселей
Высота                                   : 368 пикселей
Соотношение сторон                       : 1,870
Частота кадров                           : 23,976 кадра/сек
Цветовое пространство                    : YUV
Субдискретизация насыщенности            : 4:2:0
Битовая глубина                          : 8 бит
Тип развёртки                            : Прогрессивная
Метод сжатия                             : С потерями
Бит/(Пиксели*Кадры)                      : 0.236
Размер потока                            : 1,18 Гбайт (81%)
Библиотека кодирования                   : XviD 1.2.1 (UTC 2008-12-04)
Аудио
Идентификатор                            : 1
Формат                                   : AC-3
Формат/Информация                        : Audio Coding 3
Расширение режима                        : CM (complete main)
Идентификатор кодека                     : 2000
Продолжительность                        : 1 ч. 58 м.
Вид битрейта                             : Постоянный
Битрейт                                  : 320 Кбит/сек
Каналы                                   : 6 каналов
Расположение каналов                     : Front: L C R, Side: L R, LFE
Частота                                  : 48,0 КГц
Битовая глубина                          : 16 бит
Метод сжатия                             : С потерями
Размер потока                            : 271 Мбайт (18%)
Выравнивание                             : Разделение по промежуткам
Продолжительность промежутка             : 42  мс. (1,00 видеокадр)
Время предзагрузки промежутка            : 500  мс.
-Скриншоты:


Смотреть онлайн

[trackeroc.ru].9850.torrent 
Торрент: Зарегистрирован   [ 2015-11-17 11:13 ]

Скачать торрент

15 KB

Статус: проверено
Скачан: 17 раз
Размер: 1.46 GB
 

Похожие торренты
Форум Тема Автор Размер
Квесты , я ищу , Поиск предметов Hidden Object Нашептанные Секреты 4: Молчание – золото /Whispered Secrets 4: Golden Silence Collector's Edition[P] [RUS / ENG] (2015) HOPE 679 MB

_________________
[Профиль] [ЛС]
Показать сообщения:    
Ответить на тему

Текущее время: Сегодня 06:53

Часовой пояс: GMT + 4



Вы не можете начинать темы
Вы не можете отвечать на сообщения
Вы не можете редактировать свои сообщения
Вы не можете удалять свои сообщения
Вы не можете голосовать в опросах
Вы не можете прикреплять файлы к сообщениям
Вы можете скачивать файлы