На грани / The Brink / Сезон: 1 / Серии: 1-10 [2015]

Ответить на тему

Статистика раздачи [Обновить пиров]
Размер:  3.42 GB   |    Зарегистрирован:  1 год 3 месяца   |    Скачан:  2 раза

Полного источника не было: 3 месяца 13 дней

 
 
 
 
Автор Сообщение

Admin ®

Стаж: 7 месяцев 16 дней

Сообщений: 4460

Откуда: trackeroc.ru


Пост 14-Июл-2015 01:06

[Цитировать]

-На грани | The Brink-- • Год выпуска: 2015
• Страна: США
• Жанр: комедия
• Продолжительность: ~ 00:30:00-• Перевод: Профессиональный (многоголосый закадровый) | NewStudio-• Режиссёр: Джон Полл, Джей Роуч, Скотт Уинант-• В ролях: Тим Роббинс, Джек Блэк, Маус Джексон, Эрик Ладин, Эсай Моралес, Пабло Шрайбер, Икбал Теба, Мелани Каннокада, Марк Пэрриш, Бернард Уайт-• Описание: «На грани» (The Brink) – актуальная, как никогда, политическая сатира с Джэком Блэком и Тимом Робинсом. Угроза Третьей Мировой Войны нависла над планетой со стороны Пакистана. Военные готовы решить вопрос силой, но политики настаивают на мирном урегулировании конфликта. Ядерная война или дружеские объятия? Кто бы ни победил в этом противостоянии, главное – не терять чувства юмора. Сериал-передышка для всех фанатов «Родины» и «Карточного домика».
- -• Качество: HDTVRip 400p
• Формат: AVI
• Видео: XviD, 720x400 (16:9), 23,976 fps, ~1700 kbps,
• Аудио 1: AC3, 48.0 KHz, 6 ch, 384 Kbps, CBR - Rus
• Аудио 2: AC3, 48.0 KHz, 6 ch, 384 Kbps, CBR - Eng
• Субтитры: Русские (Forced, Full), английские-

Релиз

рип, работа со звуком, синхронизация и создание форс. субтитров - qqss44
запись звука BS666
форсированные субтитры - на надписи и урду
рус. субтитры 1 от Амедиа
рус. субтитры 2 от JossTheBoss (содержат ненормативную лексику)

MediaInfo

Код:
Общее
Формат                                   : AVI
Формат/Информация                        : Audio Video Interleave
Размер файла                             : 564 Мбайт
Продолжительность                        : 33 м.
Общий поток                              : 2366 Кбит/сек
Программа кодирования                    : VirtualDubMod 1.5.10.3 | www.virtualdub-fr.org || (build 2550/release)
Библиотека кодирования                   : VirtualDubMod build 2550/release
Видео
Идентификатор                            : 0
Формат                                   : MPEG-4 Visual
Профиль формата                          : Advanced Simple@L5
Параметр BVOP формата                    : 2
Параметр QPel формата                    : Нет
Параметр GMC формата                     : Без точки перехода
Параметр матрицы формата                 : Default (MPEG)
Идентификатор кодека                     : XVID
Идентификатор кодека/Подсказка           : XviD
Продолжительность                        : 33 м.
Битрейт                                  : 1700 Кбит/сек
Ширина                                   : 720 пикселей
Высота                                   : 400 пикселей
Соотношение сторон                       : 16:9
Частота кадров                           : 23,976 кадра/сек
Цветовое пространство                    : YUV
Субдискретизация насыщенности            : 4:2:0
Битовая глубина                          : 8 бит
Тип развёртки                            : Прогрессивная
Метод сжатия                             : С потерями
Бит/(Пиксели*Кадры)                      : 0.246
Размер потока                            : 406 Мбайт (72%)
Библиотека кодирования                   : XviD 73
Аудио #1
Идентификатор                            : 1
Формат                                   : AC-3
Формат/Информация                        : Audio Coding 3
Расширение режима                        : CM (complete main)
Параметр Endianness формата              : Big
Идентификатор кодека                     : 2000
Продолжительность                        : 28 м.
Продолжительность оригинала              : 28 м.
Вид битрейта                             : Постоянный
Битрейт                                  : 384 Кбит/сек
Каналы                                   : 6 каналов
Расположение каналов                     : Front: L C R, Side: L R, LFE
Частота                                  : 48,0 КГц
Метод сжатия                             : С потерями
Размер потока                            : 78,0 Мбайт (14%)
Выравнивание                             : Разделение по промежуткам
Продолжительность промежутка             : 49  мс. (1,18 видеокадр)
Время предзагрузки промежутка            : 500  мс.
Аудио #2
Идентификатор                            : 2
Формат                                   : AC-3
Формат/Информация                        : Audio Coding 3
Расширение режима                        : CM (complete main)
Параметр Endianness формата              : Big
Идентификатор кодека                     : 2000
Продолжительность                        : 28 м.
Продолжительность оригинала              : 28 м.
Вид битрейта                             : Постоянный
Битрейт                                  : 384 Кбит/сек
Каналы                                   : 6 каналов
Расположение каналов                     : Front: L C R, Side: L R, LFE
Частота                                  : 48,0 КГц
Метод сжатия                             : С потерями
Размер потока                            : 78,0 Мбайт (14%)
Выравнивание                             : Разделение по промежуткам
Продолжительность промежутка             : 49  мс. (1,18 видеокадр)
Время предзагрузки промежутка            : 500  мс.

Скриншоты

Раздача ведется путем добавления новых серий

Когда раздача ведётся путём добавления новых серий, при каждом добавлении создётся новый торрент. Чтобы начать докачку новой серии, пользователям необходимо сделать следующее:
(1) остановить скачивание,
(2) удалить старый торрент у себя из клиента (старые серии удалять не надо),
(3) скачать новый торрент и запустить его у себя в клиенте вместо старого, при этом указать клиенту путь в старую папку, куда и должно происходить скачивание новых серий.
Ваш клиент при этом должен произвести хеширование (проверку) старой папки (если не производит сам - помогите ему сделать это), и будет докачивать только те серии, которых у вас ещё нет. Старые серии при этом не удаляются, а продолжают раздаваться!
Eсли вы уже удалили старые серии, то предотвратить повторную закачку старых серий можно, отжав галочку в соответсвующих местах при запуске нового торрента. По возможности, желательно не удалять старые серии как можно дольше, чтобы релизёр не столько продолжал раздавать старые серии, а смог сконцентрироваться на новых.
-


Смотреть онлайн

[trackeroc.ru].6935.torrent 
Торрент: Зарегистрирован   [ 2015-08-26 22:32 ]

Скачать торрент

19 KB

Статус: проверено
Скачан: 10 раз
Размер: 3.42 GB
 

Похожие торренты
Форум Тема Автор Размер
Боевики Жизнь на грани / Life on the Line (2015) BDRip [H.264/1080p] [EN, FR / FR Sub] BiOS 7.94 GB
Приключения На грани / The Edge (1997) BDRip [H.264/720p] BiOS 4.32 GB
Квесты , я ищу , Поиск предметов Hidden Object Paranormal Pursuit: The Gifted One Collector's Edition/ Грани возможного. Избранный. (2014) (Alawar) (RUS) [P] HOPE 1.1 GB

_________________
[Профиль] [ЛС]
Показать сообщения:    
Ответить на тему

Текущее время: Сегодня 09:56

Часовой пояс: GMT + 4



Вы не можете начинать темы
Вы не можете отвечать на сообщения
Вы не можете редактировать свои сообщения
Вы не можете удалять свои сообщения
Вы не можете голосовать в опросах
Вы не можете прикреплять файлы к сообщениям
Вы можете скачивать файлы