На грани / The Edge (1997) BDRip [H.264/720p]

Ответить на тему

Статистика раздачи [Обновить пиров]
Скачали
Размер:  4.32 GB   |    Зарегистрирован:  1 год 1 месяц   |    Скачан:  5 раз

Полного источника не было: 1 день 8 часов

 
 
 
 
Автор Сообщение

BiOS ®

Стаж: 2 года 7 месяцев

Сообщений: 1732

Откуда: Raccoon City


Пост 25-Окт-2015 07:29

[Цитировать]

На грани / The Edge - Производство: США
Жанр: Триллер, Драма, Приключения
Режиссер: Ли Тамахори
Актеры: Энтони Хопкинс, Алек Болдуин, Эль Макферсон, Хэролд Перрино, Л. К. Джонс, Кэтлин Уилхойт, Марк Кили, Эли Габэй
Описание:
Миллиардер Чарльз Морс отправляется со своей молодой женой супермоделью Микки на Аляску для фотосъёмок. Модный профессиональный фотограф Роберт Грин убедил их, что именно там есть место, которое идеально для этого подходит. В поисках они улетают намного дальше, чем предполагали. Их маленький самолёт терпит крушение при столкновении с птицами и падает в озеро. Пилот погибает, остальные спасаются. Но как выжить вдали от цивилизации? Чтобы спастись в лесу, полном диких животных, они должны полагаться только друг на друга. До спасения остается недолг, но Чарльз начинает подозревать свою жену в связи с Робертом...
Релиз от: Leonardo
Продолжительность: 01:57:33
Качество видео: BDRip
Перевод: Профессиональный (многоголосый закадровый)
Язык субтитров: Русский, английский
Вид субтитров: Вшитые отключаемые
Видео: AVC/H.264, 1280x542, ~4877 kbps
Аудио: AC3, 6 ch, 384 kbps - MVO, XX Век Фокс

Mediainfo

Код:
Уникальный идентификатор                 : 217756671666263386696014794731784184037 (0xA3D268D20E9846166DB5BA2D68AB20E5)
Формат                                   : Matroska
Версия формата                           : Version 2
Размер файла                             : 4,32 Гбайт
Продолжительность                        : 1 ч. 57 м.
Общий поток                              : 5262 Кбит/сек
Дата кодирования                         : UTC 2015-10-11 11:42:01
Программа кодирования                    : mkvmerge v5.0.1 ('Es ist Sommer') built on Oct 23 2011 00:46:40
Библиотека кодирования                   : libebml v1.2.2 + libmatroska v1.3.0
Attachements                             : cover.jpg
Видео
Идентификатор                            : 1
Формат                                   : AVC
Формат/Информация                        : Advanced Video Codec
Профиль формата                          : High@L4.1
Параметр CABAC формата                   : Да
Параметр ReFrames формата                : 9 кадров
Идентификатор кодека                     : V_MPEG4/ISO/AVC
Продолжительность                        : 1 ч. 57 м.
Битрейт                                  : 4877 Кбит/сек
Ширина                                   : 1280 пикселей
Высота                                   : 542 пикселя
Соотношение сторон                       : 2,35:1
Режим частоты кадров                     : Постоянный
Частота кадров                           : 23,976 кадра/сек
Цветовое пространство                    : YUV
Субдискретизация насыщенности            : 4:2:0
Битовая глубина                          : 8 бит
Тип развёртки                            : Прогрессивная
Бит/(Пиксели*Кадры)                      : 0.293
Размер потока                            : 3,92 Гбайт (91%)
Библиотека кодирования                   : x264 core 125 r2208 d9d2288
Настройки программы                      : cabac=1 / ref=9 / deblock=1:-3:-3 / analyse=0x3:0x133 / me=umh / subme=11 / psy=1 / psy_rd=1.00:0.00 / mixed_ref=1 / me_range=32 / chroma_me=1 / trellis=2 / 8x8dct=1 / cqm=0 / deadzone=21,11 / fast_pskip=0 / chroma_qp_offset=-2 / threads=12 / lookahead_threads=2 / sliced_threads=0 / nr=0 / decimate=1 / interlaced=0 / bluray_compat=0 / constrained_intra=0 / bframes=8 / b_pyramid=2 / b_adapt=2 / b_bias=0 / direct=3 / weightb=1 / open_gop=0 / weightp=2 / keyint=250 / keyint_min=23 / scenecut=40 / intra_refresh=0 / rc=2pass / mbtree=0 / bitrate=4877 / ratetol=1.0 / qcomp=0.60 / qpmin=0 / qpmax=69 / qpstep=4 / cplxblur=20.0 / qblur=0.5 / ip_ratio=1.40 / pb_ratio=1.30 / aq=1:1.00
Язык                                     : English
Default                                  : Да
Forced                                   : Нет
Аудио
Идентификатор                            : 2
Формат                                   : AC-3
Формат/Информация                        : Audio Coding 3
Расширение режима                        : CM (complete main)
Параметр Endianness формата              : Big
Идентификатор кодека                     : A_AC3
Продолжительность                        : 1 ч. 57 м.
Вид битрейта                             : Постоянный
Битрейт                                  : 384 Кбит/сек
Каналы                                   : 6 каналов
Расположение каналов                     : Front: L C R, Side: L R, LFE
Частота                                  : 48,0 КГц
Метод сжатия                             : С потерями
Размер потока                            : 323 Мбайт (7%)
Язык                                     : Russian
Default                                  : Да
Forced                                   : Да
Текст #1
Идентификатор                            : 3
Формат                                   : UTF-8
Идентификатор кодека                     : S_TEXT/UTF8
Идентификатор кодека/Информация          : UTF-8 Plain Text
Язык                                     : Russian
Default                                  : Нет
Forced                                   : Нет
Текст #2
Идентификатор                            : 4
Формат                                   : UTF-8
Идентификатор кодека                     : S_TEXT/UTF8
Идентификатор кодека/Информация          : UTF-8 Plain Text
Язык                                     : English
Default                                  : Нет
Forced                                   : Нет
Скриншоты:


Смотреть онлайн

[trackeroc.ru].9211.torrent 
Торрент: Зарегистрирован   [ 2015-10-25 07:30 ]

Скачать торрент

12 KB

Статус: проверено
Скачан: 57 раз
Размер: 4.32 GB
 

Admin (25-окт-15)
Похожие торренты
Форум Тема Автор Размер
Боевики Жизнь на грани / Life on the Line (2015) BDRip [H.264/1080p] [EN, FR / FR Sub] BiOS 7.94 GB
Зарубежные сериалы На грани / The Brink / Сезон: 1 / Серии: 1-10 [2015] Admin 3.42 GB
Квесты , я ищу , Поиск предметов Hidden Object Paranormal Pursuit: The Gifted One Collector's Edition/ Грани возможного. Избранный. (2014) (Alawar) (RUS) [P] HOPE 1.1 GB

_________________
[Профиль] [ЛС]
Показать сообщения:    
Ответить на тему

Текущее время: Сегодня 18:23

Часовой пояс: GMT + 4



Вы не можете начинать темы
Вы не можете отвечать на сообщения
Вы не можете редактировать свои сообщения
Вы не можете удалять свои сообщения
Вы не можете голосовать в опросах
Вы не можете прикреплять файлы к сообщениям
Вы можете скачивать файлы