Незабываемое / Помнить все / Unforgettable (2011-2014) WEB-DLRip (Сезон 1-3, серии 1-48 из 48) ТВ-3

Ответить на тему

Статистика раздачи [Обновить пиров]
Размер:  26.36 GB   |    Зарегистрирован:  9 месяцев 24 дня   |    Скачан:  1 раз

Полного источника не было: 5 дней

 
 
 
 
Автор Сообщение

BiOS ®

Стаж: 2 года 7 месяцев

Сообщений: 1730

Откуда: Raccoon City


Пост 07-Фев-2016 06:53

[Цитировать]

Незабываемое / Помнить все / Unforgettable «She can do anything but forget»- Производство: США
Жанр: детектив, драма, криминал
Режиссер: Жан Де Сегонзак, Анна Ферстер, Нильс Арден Оплев, Джон Дэвид Коулз, Питер Уэрнер, Оз Скотт
Актеры: Поппи Монтгомери, Дилан Уолш, Майкл Гэстон, Кевин О. Ранкин, Дая Вайдя, Майкл Дж. Бёрг, Элизер Мейер, Мелоди Уайсс, Роксанна Хоуп, Шоун Майкл и др.
Описание:
Драма о женщине-детективе Кэрри Уэлс, обладающей уникальной способностью помнить все, что когда-либо с ней происходило. Она прекрасно выполняет работу благодаря своему дару, но для личной жизни это настоящее проклятие. Правда, одну вещь Кэрри все же не помнит — день, когда ее сестра была убита.
Продолжительность: ~ 00:43:00 серия
Качество видео: WEB-DLRip
Перевод: Дублированный - ТВ-3
Видео: AVC/H.264, 720x400 (16:9), ~1536 Кбит/сек
Аудио #1: AAC, 2 канала, 160 Кбит/сек - русский (дублированный, ТВ-3)
Аудио #2: AAC, 2 канала, 160 Кбит/сек - английский (оригинальный)

Mediainfo:

Код:
Полное имя                               : С:\Unforgettable_s1-3_WEB-DLRip_x264_TV-3\sezon-1\01. Pilot (Пилот).mp4
Формат                                   : MPEG-4
Профиль формата                          : Base Media
Идентификатор кодека                     : isom
Размер файла                             : 587 Мбайт
Продолжительность                        : 44 м.
Общий поток                              : 1864 Кбит/сек
Название фильма                          : Unforgettable (Помнить все)
Правообладатель                          : NoNaMe-Club
Видео
Идентификатор                            : 1
Формат                                   : AVC
Формат/Информация                        : Advanced Video Codec
Профиль формата                          : Main@L3.0
Параметр CABAC формата                   : Нет
Параметр ReFrames формата                : 3 кадра
Идентификатор кодека                     : avc1
Идентификатор кодека/Информация          : Advanced Video Coding
Продолжительность                        : 44 м.
Битрейт                                  : 1536 Кбит/сек
Ширина                                   : 720 пикселей
Высота                                   : 400 пикселей
Соотношение сторон                       : 16:9
Режим частоты кадров                     : Постоянный
Частота кадров                           : 23,976 кадра/сек
Цветовое пространство                    : YUV
Субдискретизация насыщенности            : 4:2:0
Битовая глубина                          : 8 бит
Тип развёртки                            : Прогрессивная
Бит/(Пиксели*Кадры)                      : 0.222
Размер потока                            : 484 Мбайт (82%)
Заголовок                                : 01. Pilot / Пилот
Библиотека кодирования                   : x264 core 146 r2538M 121396c
Настройки программы                      : cabac=0 / ref=3 / deblock=1:0:0 / analyse=0x1:0x131 / me=hex / subme=7 / psy=1 / psy_rd=1,00:0,20 / mixed_ref=1 / me_range=16 / chroma_me=1 / trellis=1 / 8x8dct=0 / cqm=0 / deadzone=21,11 / fast_pskip=1 / chroma_qp_offset=-3 / threads=12 / lookahead_threads=2 / sliced_threads=0 / nr=0 / decimate=1 / interlaced=0 / bluray_compat=0 / constrained_intra=0 / bframes=0 / weightp=2 / keyint=230 / keyint_min=23 / scenecut=0 / intra_refresh=0 / rc_lookahead=230 / rc=2pass / mbtree=1 / bitrate=1536 / ratetol=1,0 / qcomp=0,60 / qpmin=10 / qpmax=51 / qpstep=4 / cplxblur=20,0 / qblur=0,5 / ip_ratio=1,40 / aq=1:1,00
Язык                                     : English
Основные цвета                           : BT.709
Характеристики трансфера                 : BT.709
Коэффициенты матрицы                     : BT.709
Аудио #1
Идентификатор                            : 2
Формат                                   : AAC
Формат/Информация                        : Advanced Audio Codec
Профиль формата                          : LC
Идентификатор кодека                     : 40
Продолжительность                        : 44 м.
Вид битрейта                             : Постоянный
Битрейт                                  : 160 Кбит/сек
Каналы                                   : 2 канала
Расположение каналов                     : Front: L R
Частота                                  : 48,0 КГц
Метод сжатия                             : С потерями
Размер потока                            : 50,4 Мбайт (9%)
Заголовок                                : ТВ-3 (дублированный)
Язык                                     : Russian
Аудио #2
Идентификатор                            : 3
Формат                                   : AAC
Формат/Информация                        : Advanced Audio Codec
Профиль формата                          : LC
Идентификатор кодека                     : 40
Продолжительность                        : 44 м.
Вид битрейта                             : Постоянный
Битрейт                                  : 160 Кбит/сек
Каналы                                   : 2 канала
Расположение каналов                     : Front: L R
Частота                                  : 48,0 КГц
Метод сжатия                             : С потерями
Размер потока                            : 50,4 Мбайт (9%)
Заголовок                                : Оригинальный
Язык                                     : English

Список серий

1 сезон

01. Pilot / Пилот
02. Heroes / Герои
03. Check Out Time / Время расчёта
04. Up In Flames / Опаленные любовью
05. With Honor / С честью
06. Friended / Друзья до гроба
07. Road Block / Камень преткновения
08. Lost Things / Пропавшие вещи
09. Golden Bird / Золотая птица
10. Trajectories / Траектории
11. Spirited Away / Унесённые призраками
12. Butterfly Effect / Эффект бабочки
13. Brotherhood / Братство
14. Carrie’s Caller / Анонимный звонок
15. The Following Sea / Попутная волна
16. Heartbreak / Разбитое сердце
17. Blind Alleys / Тупик
18. The Comeback / Возвращение
19. Allegiances / Преданность
20. You Are Here / Ты здесь
21. Endgame / Конец игры
22. The Man in the Woods / Человек в лесу

2 сезон

01. Bigtime / Большое время
02. Incognito / Инкогнито
03. Day of the Jackie / День Джеки
04. Memory Kings / Короли памяти
05. Past Tense / Прошедшее время
06. Line Up or Shut Up / Говори или замолчи
07. Maps & Legends / Карты и легенды
08. Til Death / До смерти
09. Flesh and Blood / Плоть и кровь
10. Manhunt / Облава
11. East of Islip / К востоку от Айлипа
12. Omega Hour / Час омеги
13. Reunion / Встреча друзей

3 сезон

01. New Hundred / Новая сотня
02. The Combination / Комбинация
03. The Haircut / Прическа
04. Cashing Out / Вывод средств
05. A Moveable Feast / Праздник, который всегда с тобой
06. Stray Bullet / Шальная пуля
07. Throwing Shade / Отброшенная тень
08. The Island / Остров
09. Admissions / Приемный покой
10. Fire and Ice / Огонь и лед
11. True Identity / Истинное лицо
12. Moving On / Переход
13. D.O.A. / Живым или мертвым
-Скриншоты:


Смотреть онлайн

[trackeroc.ru].11522.torrent 
 ЗОЛОТАЯ РАЗДАЧА! СКАЧАННОЕ НЕ ЗАСЧИТЫВАЕТСЯ! 
Торрент: Зарегистрирован   [ 2016-02-07 06:53 ]

Скачать торрент

137 KB

Статус: проверено
Скачан: 33 раз
Размер: 26.36 GB
 

Admin (07-фев-16)
Похожие торренты
Форум Тема Автор Размер
Зарубежные сериалы Незабываемое / Помнить все / Unforgettable (2015) HDTVRip (Сезон 4, серии 1-13) Gears Media Admin 6.56 GB

_________________
[Профиль] [ЛС]
Показать сообщения:    
Ответить на тему

Текущее время: Сегодня 04:17

Часовой пояс: GMT + 4



Вы не можете начинать темы
Вы не можете отвечать на сообщения
Вы не можете редактировать свои сообщения
Вы не можете удалять свои сообщения
Вы не можете голосовать в опросах
Вы не можете прикреплять файлы к сообщениям
Вы можете скачивать файлы