Незабываемое / Помнить все / Unforgettable (2015) HDTVRip (Сезон 4, серии 1-13) Gears Media

Ответить на тему

Статистика раздачи [Обновить пиров]
Размер:  6.56 GB   |    Зарегистрирован:  1 год   |    Скачан:  1 раз
Сидов:  1  [  0 KB/s  ]   Подробная статистика пиров
   
 
Автор Сообщение

Admin ®

Стаж: 10 месяцев

Сообщений: 4588

Откуда: trackeroc.ru


Пост 22-Янв-2016 15:08

[Цитировать]

Незабываемое / Помнить все / Unforgettable «She can do anything but forget»- Произвлдство: США / Timberman-Beverly Productions, CBS Television Studios, Sony Pictures Television
Жанр: драма, криминал
Режиссер: Пол Холахан, Жан Де Сегонзак, Мэтт Эрл Бисли
Актеры: Поппи Монтгомери, Дилан Уолш, Джеймс Хироюки Лиао, Джейн Куртин, Даллас Робертс, Тони Сайпресс, Майкл Гэстон, Кевин О. Ранкин, Дая Вайдя, Карл Дусена и др.
Описание:
Драма о женщине-детективе Кэрри Уэлс, обладающей уникальной способностью помнить все, что когда-либо с ней происходило. Она прекрасно выполняет работу благодарая своему дару, но для личной жизни это настоящее проклятие. Правда, одну вещь Кэрри все же не помнит — день, когда ее сестра была убита.

Продолжительность: ~00:42:00 серия
Качество видео: HDTVRip
Перевод: Двухголосый закадровый, профессиональный - Gears Media
Видео: XviD, 720x400 (16:9), ~1500 kb/s
Аудио Rus: AC-3, 48,0 kHz, 2 ch, 192 kb/s — двухголосый закадровый

MediaInfo

Код:
Общее
Полное имя                               : С:\Помнить всё (сезон 4) Unforgettable (2015) HDTVRip - Gears Media\Unforgettable.S04E01.HDTVRip.Rus.DV.Gears Media.avi
Формат                                   : AVI
Формат/Информация                        : Audio Video Interleave
Размер файла                             : 505 Мбайт
Продолжительность                        : 41 м.
Общий поток                              : 1701 Кбит/сек
Программа кодирования                    : VirtualDubModRus 1.5.10.2 (build 2542/release)
Библиотека кодирования                   : VirtualDubMod build 2542/release
Видео
Идентификатор                            : 0
Формат                                   : MPEG-4 Visual
Профиль формата                          : Advanced Simple@L5
Параметр BVOP формата                    : 1
Параметр QPel формата                    : Нет
Параметр GMC формата                     : Без точки перехода
Параметр матрицы формата                 : Default (H.263)
Идентификатор кодека                     : XVID
Идентификатор кодека/Подсказка           : XviD
Продолжительность                        : 41 м.
Битрейт                                  : 1500 Кбит/сек
Ширина                                   : 720 пикселей
Высота                                   : 400 пикселей
Соотношение сторон                       : 16:9
Частота кадров                           : 23,976 (23976/1000) кадра/сек
Цветовое пространство                    : YUV
Субдискретизация насыщенности            : 4:2:0
Битовая глубина                          : 8 бит
Тип развёртки                            : Прогрессивная
Метод сжатия                             : С потерями
Бит/(Пиксели*Кадры)                      : 0.217
Размер потока                            : 445 Мбайт (88%)
Библиотека кодирования                   : XviD 1.2.1 (UTC 2008-12-04)
Аудио
Идентификатор                            : 1
Формат                                   : AC-3
Формат/Информация                        : Audio Coding 3
Расширение режима                        : CM (complete main)
Параметр Endianness формата              : Big
Идентификатор кодека                     : 2000
Продолжительность                        : 41 м.
Вид битрейта                             : Постоянный
Битрейт                                  : 192 Кбит/сек
Каналы                                   : 2 канала
Расположение каналов                     : Front: L R
Частота                                  : 48,0 КГц
Частота кадров                           : 31,250 кадров/сек (1536 spf)
Метод сжатия                             : С потерями
Задержка видео                           : 32 мс.
Размер потока                            : 56,9 Мбайт (11%)
Выравнивание                             : Разделение по промежуткам
Продолжительность промежутка             : 42  мс. (1,00 видеокадр)
Время предзагрузки промежутка            : 500  мс.
-Скриншоты:


Смотреть онлайн


[trackerock.ru].11170.torrent 
 ЗОЛОТАЯ РАЗДАЧА! СКАЧАННОЕ НЕ ЗАСЧИТЫВАЕТСЯ! 
Торрент: Зарегистрирован   [ 2016-02-22 17:47 ]

Скачать торрент

35 KB

Статус: проверено
Скачан: 11 раз
Размер: 6.56 GB
 

BiOS (07-фев-16)
Похожие торренты
Форум Тема Автор Размер
Зарубежные сериалы Незабываемое / Помнить все / Unforgettable (2011-2014) WEB-DLRip (Сезон 1-3, серии 1-48 из 48) ТВ-3 BiOS 26.36 GB

_________________
[Профиль] [ЛС]
Показать сообщения:    
Ответить на тему

Текущее время: Сегодня 15:51

Часовой пояс: GMT + 4



Вы не можете начинать темы
Вы не можете отвечать на сообщения
Вы не можете редактировать свои сообщения
Вы не можете удалять свои сообщения
Вы не можете голосовать в опросах
Вы не можете прикреплять файлы к сообщениям
Вы можете скачивать файлы