Nightwish - From Wishes to Eternity - Live (2001) DVDRip [H.264]

Ответить на тему

Статистика раздачи [Обновить пиров]
Размер:  1.45 GB   |    Зарегистрирован:  1 год   |    Скачан:  4 раза

Полного источника не было: 1 месяц 1 день

 
 
 
 
Автор Сообщение

BiOS ®

Стаж: 2 года 7 месяцев

Сообщений: 1730

Откуда: Raccoon City


Пост 13-Ноя-2015 02:28

[Цитировать]

Nightwish "From Wishes to Eternity" - Жанр: Концерт, Symphonic metal, power metal-Описание :
From Wishes to Eternity - Live — концертный DVD симфо-пауэр-метал квинтета Nightwish. Был записан в Тампере, Финляндия, 29 декабря 2000 года. В дополнении к представленному материалу, группа исполнила попурри "Crimson Tide | Deep Blue Sea", в котором заимствовались мелодии из многих источников, в том числе и из фильма Тони Скотта "Багровый прилив" (1995) - именно данная композиция и представлена для ознакомления в качестве сэмпла.-Состав: Тарья Турунен — вокал, Туомас Холопайнен — клавишные, Эрно Вуоринен — лидер-гитара, Юкка Невалайнен — ударные, Сами Вянскя — бас-гитара-Год выпуска DVD: 2001
Продолжительность: 01:19:55-Видеокодек: AVC/H.264
Битрейт видео: ~2141 kbps
Размер кадра: 720x384 (1.875:1)
Качество видео: DVDRip
Аудиокодек: AC3 5.1
Битрейт аудио: 448 kbps-

Треклист

Треклист:
01. "The Kinslayer"
02. "She Is My Sin"
03."Deep Silent Complete"
04. "The Pharaoh Sails to Orion"
05. "Come Cover Me"
06. "Wanderlust"
07. "Instrumental (Crimson Tide | Deep Blue Sea)"
08. "Swanheart"
09. "Elvenpath"
10. "FantasMic (Part 3)"
11. "Dead Boy's Poem"
12. "Sacrament of Wilderness"
13. "Walking in the Air"
14. "Beauty & the Beast"
15. "Wishmaster"
-

MediaInfo

Код:
Уникальный идентификатор                 : 244406230843899352580970170883866632609 (0xB7DEED8815315A3D927B48FE8DDC21A1)
Полное имя                               : Z:\Концерты\From_wishes_to_eternity 2001.mkv
Формат                                   : Matroska
Версия формата                           : Version 2
Размер файла                             : 1,45 Гбайт
Продолжительность                        : 1 ч. 19 м.
Общий поток                              : 2591 Кбит/сек
Название фильма                          : From wishes to eternity
Дата кодирования                         : UTC 2011-07-17 16:19:19
Программа кодирования                    : mkvmerge v3.4.0 ('Rapunzel') built on May 15 2010 09:38:20
Библиотека кодирования                   : libebml v0.8.0 + libmatroska v0.9.0
Видео
Идентификатор                            : 1
Формат                                   : AVC
Формат/Информация                        : Advanced Video Codec
Профиль формата                          : High@L3.1
Параметр CABAC формата                   : Да
Параметр ReFrames формата                : 8 кадров
Идентификатор кодека                     : V_MPEG4/ISO/AVC
Продолжительность                        : 1 ч. 19 м.
Битрейт                                  : 2141 Кбит/сек
Ширина                                   : 720 пикселей
Высота                                   : 384 пикселя
Соотношение сторон                       : 1,85:1
Режим частоты кадров                     : Постоянный
Частота кадров                           : 25,000 кадров/сек
Цветовое пространство                    : YUV
Субдискретизация насыщенности            : 4:2:0
Битовая глубина                          : 8 бит
Тип развёртки                            : Прогрессивная
Бит/(Пиксели*Кадры)                      : 0.310
Размер потока                            : 1,17 Гбайт (81%)
Заголовок                                : Nightwish | From wishes to eternity | 2001 | DXVA | DVDRip-AVC by Rockboy
Библиотека кодирования                   : x264 core 92 r1510 33d382a
Настройки программы                      : cabac=1 / ref=8 / deblock=1:-2:-1 / analyse=0x3:0x133 / me=umh / subme=10 / psy=1 / psy_rd=1.00:0.20 / mixed_ref=1 / me_range=24 / chroma_me=1 / trellis=2 / 8x8dct=1 / cqm=0 / deadzone=21,11 / fast_pskip=0 / chroma_qp_offset=-3 / threads=1 / sliced_threads=0 / nr=0 / decimate=0 / interlaced=0 / constrained_intra=0 / bframes=3 / b_pyramid=2 / b_adapt=2 / b_bias=0 / direct=3 / wpredb=1 / wpredp=2 / keyint=250 / keyint_min=25 / scenecut=40 / intra_refresh=0 / rc_lookahead=60 / rc=2pass / mbtree=1 / bitrate=2141 / ratetol=1.0 / qcomp=0.60 / qpmin=10 / qpmax=51 / qpstep=4 / cplxblur=20.0 / qblur=0.5 / vbv_maxrate=17500 / vbv_bufsize=14000 / ip_ratio=1.40 / aq=1:1.00 / nal_hrd=none
Язык                                     : English
Default                                  : Да
Forced                                   : Нет
Аудио
Идентификатор                            : 2
Формат                                   : AC-3
Формат/Информация                        : Audio Coding 3
Расширение режима                        : CM (complete main)
Параметр Endianness формата              : Big
Идентификатор кодека                     : A_AC3
Продолжительность                        : 1 ч. 19 м.
Вид битрейта                             : Постоянный
Битрейт                                  : 448 Кбит/сек
Каналы                                   : 6 каналов
Расположение каналов                     : Front: L C R, Side: L R, LFE
Частота                                  : 48,0 КГц
Битовая глубина                          : 16 бит
Метод сжатия                             : С потерями
Размер потока                            : 256 Мбайт (17%)
Заголовок                                : English | 48 KHz | AC-3 | 6 ch | 448 Kbps
Язык                                     : English
Default                                  : Да
Forced                                   : Нет
Скриншоты:
[/a


[trackeroc.ru].9710.torrent 
 СЕРЕБРЯНАЯ РАЗДАЧА! СКАЧАННОЕ ЗАСЧИТЫВАЕТСЯ ТОЛЬКО НАПОЛОВИНУ! 
Торрент: Зарегистрирован   [ 2015-11-13 02:28 ]

Скачать торрент

15 KB

Статус: проверено
Скачан: 34 раз
Размер: 1.45 GB
 

Похожие торренты
Форум Тема Автор Размер
Видео клипы Nightwish - Showtime, Storytime (2013) DVDRip BiOS 1.37 GB

_________________
[Профиль] [ЛС]
Показать сообщения:    
Ответить на тему

Текущее время: Сегодня 23:48

Часовой пояс: GMT + 4



Вы не можете начинать темы
Вы не можете отвечать на сообщения
Вы не можете редактировать свои сообщения
Вы не можете удалять свои сообщения
Вы не можете голосовать в опросах
Вы не можете прикреплять файлы к сообщениям
Вы можете скачивать файлы