Nightwish - Showtime, Storytime (2013) DVDRip

Ответить на тему

Статистика раздачи [Обновить пиров]
Размер:  1.37 GB   |    Зарегистрирован:  1 год   |    Скачан:  5 раз
Сидов:  1  [  0 KB/s  ]   Подробная статистика пиров
   
 
Автор Сообщение

BiOS ®

Стаж: 2 года 7 месяцев

Сообщений: 1730

Откуда: Raccoon City


Пост 13-Ноя-2015 02:19

[Цитировать]

Nightwish - Showtime, Storytime - Жанр: Концерт, Symphonic metal, power metal-Описание:
Вашему вниманию представлено выступление знаменитой финской Symphonic Power Metal команды "Nightwish" на фестивале "Wacken Open Air 2013" в немецком городе Вакен, состоявшееся 3 августа этого года в присутствии 85 тыс. зрителей. Режиссером выступил Вилле Липиайнен (Ville Lipiäinen), который задействовал для съемок 17 камер. Общая продолжительность концертной программы составляет 85 минут. Первый концерт, выпущенный на DVD, с новой вокалисткой, голландкой Floor Jansen (ex - After Forever, действующая вокалистка ReVamp и Nightwish).-Рeжиссер: Вилле Липиайнен
Состав: Флор Янсен, Туомас Холопайнен, Марко Хиетала, Эрно Вуоринен, Юкка Невалайнен, Трой Донокли-Продолжительность: 01:34:11
Качество видео: DVDRip-Видеокодек: XviD
Битрейт видео: ~1624 kbps
Размер кадра: 720x400
Аудиокодек: AC3 5.1
Битрейт аудио: 448 Kbps-

Треклист

Треклист:
01."Dark Chest Of Wonders"
02."Wish I Had An Angel"
03."She Is My Sin"
04."Ghost River"
05."Ever Dream"
06."Storytime"
07."I Want My Tears Back"
08."Nemo"
09."Last Of The Wilds"
10."Bless The Child"
11."Romanticide"
12."Amaranth"
13."Ghost Love Score"
14."Song Of Myself"
15."Last Ride Of The Day"
16."Outro: Imaginaerum"
-

MediaInfo

Код:
Полное имя                               : Z:\Концерты\Nightwish-Showtime,Storytime.2013.DVDRip.avi
Формат                                   : AVI
Формат/Информация                        : Audio Video Interleave
Размер файла                             : 1,37 Гбайт
Продолжительность                        : 1 ч. 34 м.
Общий поток                              : 2082 Кбит/сек
Программа кодирования                    : VirtualDubMod 1.5.10.2 (build 2540/release)
Библиотека кодирования                   : VirtualDubMod build 2540/release
Видео
Идентификатор                            : 0
Формат                                   : MPEG-4 Visual
Профиль формата                          : Advanced Simple@L5
Параметр BVOP формата                    : 1
Параметр QPel формата                    : Нет
Параметр GMC формата                     : Без точки перехода
Параметр матрицы формата                 : Default (H.263)
Идентификатор кодека                     : XVID
Идентификатор кодека/Подсказка           : XviD
Продолжительность                        : 1 ч. 34 м.
Битрейт                                  : 1624 Кбит/сек
Ширина                                   : 720 пикселей
Высота                                   : 400 пикселей
Соотношение сторон                       : 16:9
Частота кадров                           : 25,000 кадров/сек
Цветовое пространство                    : YUV
Субдискретизация насыщенности            : 4:2:0
Битовая глубина                          : 8 бит
Тип развёртки                            : Прогрессивная
Метод сжатия                             : С потерями
Бит/(Пиксели*Кадры)                      : 0.226
Размер потока                            : 1,07 Гбайт (78%)
Библиотека кодирования                   : XviD 1.2.1 (UTC 2008-12-04)
Аудио
Идентификатор                            : 1
Формат                                   : AC-3
Формат/Информация                        : Audio Coding 3
Расширение режима                        : CM (complete main)
Параметр Endianness формата              : Big
Идентификатор кодека                     : 2000
Продолжительность                        : 1 ч. 34 м.
Вид битрейта                             : Постоянный
Битрейт                                  : 448 Кбит/сек
Каналы                                   : 6 каналов
Расположение каналов                     : Front: L C R, Side: L R, LFE
Частота                                  : 48,0 КГц
Битовая глубина                          : 16 бит
Метод сжатия                             : С потерями
Размер потока                            : 302 Мбайт (22%)
Выравнивание                             : Разделение по промежуткам
Продолжительность промежутка             : 40  мс. (1,00 видеокадр)
Время предзагрузки промежутка            : 500  мс.
-Скриншоты:


[trackeroc.ru].9709.torrent 
 СЕРЕБРЯНАЯ РАЗДАЧА! СКАЧАННОЕ ЗАСЧИТЫВАЕТСЯ ТОЛЬКО НАПОЛОВИНУ! 
Торрент: Зарегистрирован   [ 2015-11-13 02:19 ]

Скачать торрент

14 KB

Статус: проверено
Скачан: 70 раз
Размер: 1.37 GB
 

Похожие торренты
Форум Тема Автор Размер
Видео клипы Nightwish - From Wishes to Eternity - Live (2001) DVDRip [H.264] BiOS 1.45 GB

_________________
[Профиль] [ЛС]
Показать сообщения:    
Ответить на тему

Текущее время: Сегодня 00:32

Часовой пояс: GMT + 4



Вы не можете начинать темы
Вы не можете отвечать на сообщения
Вы не можете редактировать свои сообщения
Вы не можете удалять свои сообщения
Вы не можете голосовать в опросах
Вы не можете прикреплять файлы к сообщениям
Вы можете скачивать файлы