Ночной администратор / The Night Manager / Сезон: 1 / Серии: 1-6

Ответить на тему

Статистика раздачи [Обновить пиров]
Скачали
Размер:  3.57 GB   |    Зарегистрирован:  8 месяцев 16 дней   |    Скачан:  2 раза

Полного источника не было: 3 месяца 26 дней

 
 
 
 
Автор Сообщение

Admin ®

Стаж: 7 месяцев 16 дней

Сообщений: 4460

Откуда: trackeroc.ru


Пост 23-Фев-2016 13:24

[Цитировать]

-Ночной администратор | The Night Manager-- • Год выпуска: 2016
• Страна: США
• Жанр: Боевик, триллер, драма
• Продолжительность: ~ 00:55:00-• Перевод: Профессиональный (многоголосый закадровый) | AMC-• Режиссёр: Сюзанна Бир-• В ролях: Том Хиддлстон, Хью Лори, Элизабет Дебики, Оливия Колман, Том Холландер, Кэтерин Келли, Майкл Нардон, Алистэр Петри, Джонатан Арис, Дэвид Хэрвуд-• Описание: Ночной администратор европейского отеля завербован агентами спецслужб для проникновения в международную сеть торговца оружием.- -Ссылка на предыдущие и альтернативные раздачи-• Качество: WEB-DLRip
• Формат: AVI
• Видео: XviD, 720x400 (16:9), 23,976 fps, ~1500 kbps
• Аудио #1: MP3, 48 kHz, 2 ch, 128 kbps, CBR - Rus
• Аудио #2: MP3, 48 kHz, 2 ch, 128 kbps, CBR - Eng
• Субтитры: отсутствуют-

✘ MediaInfo ✘

Код:
Общее
Полное имя                               : X:\ATorrent\Night Manager\The.Night.Manager.[S01E01].XviD.AMC.[qqss44].avi
Формат                                   : AVI
Формат/Информация                        : Audio Video Interleave
Размер файла                             : 700 Мбайт
Продолжительность                        : 57 м.
Общий поток                              : 1700 Кбит/сек
Программа кодирования                    : VirtualDubMod 1.5.10.3 | www.virtualdub-fr.org || (build 2550/release)
Библиотека кодирования                   : VirtualDubMod build 2550/release
Видео
Идентификатор                            : 0
Формат                                   : MPEG-4 Visual
Профиль формата                          : Advanced Simple@L5
Параметр BVOP формата                    : 2
Параметр QPel формата                    : Нет
Параметр GMC формата                     : Без точки перехода
Параметр матрицы формата                 : Default (MPEG)
Идентификатор кодека                     : XVID
Идентификатор кодека/Подсказка           : XviD
Продолжительность                        : 57 м.
Битрейт                                  : 1430 Кбит/сек
Ширина                                   : 720 пикселей
Высота                                   : 400 пикселей
Соотношение сторон                       : 16:9
Частота кадров                           : 25,000 кадров/сек
Цветовое пространство                    : YUV
Субдискретизация насыщенности            : 4:2:0
Битовая глубина                          : 8 бит
Тип развёртки                            : Прогрессивная
Метод сжатия                             : С потерями
Бит/(Пиксели*Кадры)                      : 0.199
Размер потока                            : 589 Мбайт (84%)
Библиотека кодирования                   : XviD 73
Аудио #1
Идентификатор                            : 1
Формат                                   : MPEG Audio
Версия формата                           : Version 1
Профиль формата                          : Layer 3
Режим                                    : Joint stereo
Расширение режима                        : MS Stereo
Идентификатор кодека                     : 55
Идентификатор кодека/Подсказка           : MP3
Продолжительность                        : 57 м.
Вид битрейта                             : Постоянный
Битрейт                                  : 128 Кбит/сек
Каналы                                   : 2 канала
Частота                                  : 48,0 КГц
Метод сжатия                             : С потерями
Размер потока                            : 52,7 Мбайт (8%)
Выравнивание                             : Соединение по промежуткам
Продолжительность промежутка             : 40  мс. (1,00 видеокадр)
Время предзагрузки промежутка            : 504  мс.
Аудио #2
Идентификатор                            : 2
Формат                                   : MPEG Audio
Версия формата                           : Version 1
Профиль формата                          : Layer 3
Режим                                    : Joint stereo
Расширение режима                        : MS Stereo
Идентификатор кодека                     : 55
Идентификатор кодека/Подсказка           : MP3
Продолжительность                        : 57 м.
Вид битрейта                             : Постоянный
Битрейт                                  : 128 Кбит/сек
Каналы                                   : 2 канала
Частота                                  : 48,0 КГц
Метод сжатия                             : С потерями
Размер потока                            : 52,7 Мбайт (8%)
Выравнивание                             : Соединение по промежуткам
Продолжительность промежутка             : 40  мс. (1,00 видеокадр)
Время предзагрузки промежутка            : 504  мс.

✘ Скриншоты ✘

✘ Раздача ведется путем добавления новых серий ✘

Когда раздача ведётся путём добавления новых серий, при каждом добавлении создётся новый торрент. Чтобы начать докачку новой серии, пользователям необходимо сделать следующее:
(1) остановить скачивание,
(2) удалить старый торрент у себя из клиента (старые серии удалять не надо),
(3) скачать новый торрент и запустить его у себя в клиенте вместо старого, при этом указать клиенту путь в старую папку, куда и должно происходить скачивание новых серий.
Ваш клиент при этом должен произвести хеширование (проверку) старой папки (если не производит сам - помогите ему сделать это), и будет докачивать только те серии, которых у вас ещё нет. Старые серии при этом не удаляются, а продолжают раздаваться!
Eсли вы уже удалили старые серии, то предотвратить повторную закачку старых серий можно, отжав галочку в соответсвующих местах при запуске нового торрента. По возможности, желательно не удалять старые серии как можно дольше, чтобы релизёр не столько продолжал раздавать старые серии, а смог сконцентрироваться на новых.
-


Смотреть онлайн

[trackerock.ru].11721.torrent 
Торрент: Зарегистрирован   [ 2016-03-25 18:15 ]

Скачать торрент

19 KB

Статус: проверено
Скачан: 6 раз
Размер: 3.57 GB
 

Похожие торренты
Форум Тема Автор Размер
Боевики Ночной беглец / Run All Night [2015, США, Боевик, криминал, драма, BDRip] Dub + AVO (Гаврилов) Admin 1.77 GB

_________________
[Профиль] [ЛС]
Показать сообщения:    
Ответить на тему

Текущее время: Сегодня 15:47

Часовой пояс: GMT + 4



Вы не можете начинать темы
Вы не можете отвечать на сообщения
Вы не можете редактировать свои сообщения
Вы не можете удалять свои сообщения
Вы не можете голосовать в опросах
Вы не можете прикреплять файлы к сообщениям
Вы можете скачивать файлы