Ночной беглец / Run All Night [2015, США, Боевик, криминал, драма, BDRip] Dub + AVO (Гаврилов)

Ответить на тему

Статистика раздачи [Обновить пиров]
Размер:  1.77 GB   |    Зарегистрирован:  1 год 4 месяца   |    Скачан:  5 раз

Полного источника не было: 28 дней

 
 
 
 
Автор Сообщение

Admin ®

Стаж: 7 месяцев 13 дней

Сообщений: 4459

Откуда: trackeroc.ru


Пост 13-Июл-2015 14:56

[Цитировать]

Ночной беглец / Run All Night
«Одна ночь, чтобы свести счёты»
- Год выпуска: 2015
Выпущено: США / Vertigo Entertainment
Жанр: боевик, криминал, драма
Продолжительность: 01:54:21
Перевод (1): Профессиональный (полное дублирование) BD CEE
Перевод (2): Авторский (одноголосый закадровый) Андрей Гаврилов
Cубтитры: нет-Режиссер:
Хауме Кольет-Серра / Jaume Collet-Serra-В ролях:
Лиам Нисон (Jimmy Conlon), Юэль Киннаман (Mike Conlon), Коммон (Andrew Price), Эд Харрис (Shawn Maguire), Бойд Холбрук (Danny Maguire), Брюс МакГилл (Pat Mullen), Дженезис Родригез (Gabriela Conlon), Винсент Д’Онофрио (Detective Harding), Луис Смит (Margaret Conlon), Бо Напп (Kenan Boyle)-Описание:
Фильм расскажет историю киллера, вступившего в конфликт с бывшим боссом и в итоге вынужденного пуститься в бега, чтобы защитить свою семью от преследования мафией и властями.-Релиз групп | | IMDB | КиноПоиск | Сэмпл |-Качество: BDRip [BDRemux | 1080p | Кинозал]
Формат: AVI
Видео: 720x304 (2.37:1), 23.976 fps, XviD build 73 ~1432 kbps avg, 0.27 bit/pixel
Аудио #1: 48 kHz, AC3 Dolby Digital, 3/2 (L,C,R,l,r) + LFE ch, ~384.00 kbps avg (DUB) BD CEE
Аудио #2: 48 kHz, AC3 Dolby Digital, 3/2 (L,C,R,l,r) + LFE ch, ~384.00 kbps avg (AVO) Андрей Гаврилов отдельно
-

Скриншоты

MediaInfo

Код:
General
Complete name                            : D:\Nochnoi_beglec_2015_BDRip_by_Dalemake.avi
Format                                   : AVI
Format/Info                              : Audio Video Interleave
File size                                : 1.46 GiB
Duration                                 : 1h 54mn
Overall bit rate                         : 1 826 Kbps
Writing application                      : VirtualDubMod 1.5.10.3 | www.virtualdub-fr.org || (build 2550/release)
Writing library                          : VirtualDubMod build 2550/release
Video
ID                                       : 0
Format                                   : MPEG-4 Visual
Format profile                           : Advanced Simple@L5
Format settings, BVOP                    : 1
Format settings, QPel                    : No
Format settings, GMC                     : No warppoints
Format settings, Matrix                  : Custom
Codec ID                                 : XVID
Codec ID/Hint                            : XviD
Duration                                 : 1h 54mn
Bit rate                                 : 1 433 Kbps
Width                                    : 720 pixels
Height                                   : 304 pixels
Display aspect ratio                     : 2.35:1
Frame rate                               : 23.976 fps
Color space                              : YUV
Chroma subsampling                       : 4:2:0
Bit depth                                : 8 bits
Scan type                                : Progressive
Compression mode                         : Lossy
Bits/(Pixel*Frame)                       : 0.273
Stream size                              : 1.14 GiB (78%)
Writing library                          : XviD 73
Audio
ID                                       : 1
Format                                   : AC-3
Format/Info                              : Audio Coding 3
Mode extension                           : CM (complete main)
Format settings, Endianness              : Big
Codec ID                                 : 2000
Duration                                 : 1h 54mn
Bit rate mode                            : Constant
Bit rate                                 : 384 Kbps
Channel(s)                               : 6 channels
Channel positions                        : Front: L C R, Side: L R, LFE
Sampling rate                            : 48.0 KHz
Bit depth                                : 16 bits
Compression mode                         : Lossy
Stream size                              : 314 MiB (21%)
Alignment                                : Split accross interleaves
Interleave, duration                     : 42 ms (1.00 video frame)
Interleave, preload duration             : 500 ms
-
За перевод А. Гаврилова большое спасибо пользователям форума hdtracker.org:
Gross1978; Hattori Hanzo; marlboro-man; dwser; dunhill200; _MyxAmoP_; нетработе; Vimann; Brown15; Sonny Black; karantin66; Pain_70; Letyoha3; KerkP; GaryH; gtjuve; chef&chef; Chistobaev; nimph; Loki; Role; KR0Tik; Tagansky; kolibri2; fly32; vovyanskiy; saenwert; audiolubitel; Shumway


Смотреть онлайн

[trackeroc.ru].6889.torrent 
Торрент: Зарегистрирован   [ 2015-07-13 14:56 ]

Скачать торрент

18 KB

Статус: проверено
Скачан: 15 раз
Размер: 1.77 GB
 

Похожие торренты
Форум Тема Автор Размер
Зарубежные сериалы Ночной администратор / The Night Manager / Сезон: 1 / Серии: 1-6 Admin 3.57 GB

_________________
[Профиль] [ЛС]
Показать сообщения:    
Ответить на тему

Текущее время: Сегодня 01:52

Часовой пояс: GMT + 4



Вы не можете начинать темы
Вы не можете отвечать на сообщения
Вы не можете редактировать свои сообщения
Вы не можете удалять свои сообщения
Вы не можете голосовать в опросах
Вы не можете прикреплять файлы к сообщениям
Вы можете скачивать файлы