Номер 44 / Child 44 [2015, США, Великобритания, Чехия, Румыния, триллер, драма, WEB-DLRip]

Ответить на тему

Статистика раздачи [Обновить пиров]
Размер:  1.46 GB   |    Зарегистрирован:  1 год 4 месяца   |    Скачан:  3 раза
DL-List: Нет

Полного источника не было: 10 месяцев 18 дней

 
 
 
 
Автор Сообщение

Admin ®

Стаж: 7 месяцев 15 дней

Сообщений: 4459

Откуда: trackeroc.ru


Пост 13-Июл-2015 17:27

[Цитировать]

Номер 44 / Child 44
«Можно ли найти убийцу, которого нет»
- Год выпуска: 2015
Страна: США, Великобритания, Чехия, Румыния
Жанр: триллер, драма
Продолжительность: 02:11:30
Перевод: Профессиональный (полное дублирование)
Cубтитры: нет-Режиссер:
Даниэль Эспиноса / Daniel Espinosa-В ролях:
Том Харди, Гари Олдман, Нуми Рапас, Юэль Киннаман, Пэдди Консидайн, Джейсон Кларк, Венсан Кассель, Ксавьер Аткинс, Марк Льюис Джонс, Фарес Фарес-Описание:
Действие фильма развернется в СССР времен Иосифа Сталина. Главный герой — дискредитированный офицер советской разведки Лев Демидов. Он расследует серию детских убийств, но его деятельность вызывает подозрение у параноидального советского правительства.-| Сэмпл |-Качество: WEB-DLRip [WEB-DL | 1080p | Кинозал]
Формат: AVI
Видео: 704x400 (1.76:1), 25 fps, XviD build 73 ~1387 kbps avg, 0.20 bit/pixel
Аудио: 48 kHz, AC3 Dolby Digital, 2/0 (L,R) ch, ~192.00 kbps avg - iTunes Russia
-

Скриншоты

MediaInfo

Код:
General
Complete name                            : D:\Nomer_44_2015_WEB-DLRip_by_Dalemake.avi
Format                                   : AVI
Format/Info                              : Audio Video Interleave
File size                                : 1.46 GiB
Duration                                 : 2h 11mn
Overall bit rate                         : 1 589 Kbps
Writing application                      : VirtualDubMod 1.5.10.3 | www.virtualdub-fr.org || (build 2550/release)
Writing library                          : VirtualDubMod build 2550/release
Video
ID                                       : 0
Format                                   : MPEG-4 Visual
Format profile                           : Advanced Simple@L5
Format settings, BVOP                    : 1
Format settings, QPel                    : No
Format settings, GMC                     : No warppoints
Format settings, Matrix                  : Custom
Codec ID                                 : XVID
Codec ID/Hint                            : XviD
Duration                                 : 2h 11mn
Bit rate                                 : 1 388 Kbps
Width                                    : 704 pixels
Height                                   : 400 pixels
Display aspect ratio                     : 16:9
Frame rate                               : 25.000 fps
Color space                              : YUV
Chroma subsampling                       : 4:2:0
Bit depth                                : 8 bits
Scan type                                : Progressive
Compression mode                         : Lossy
Bits/(Pixel*Frame)                       : 0.197
Stream size                              : 1.27 GiB (87%)
Writing library                          : XviD 73
Audio
ID                                       : 1
Format                                   : AC-3
Format/Info                              : Audio Coding 3
Mode extension                           : CM (complete main)
Format settings, Endianness              : Big
Codec ID                                 : 2000
Duration                                 : 2h 11mn
Bit rate mode                            : Constant
Bit rate                                 : 192 Kbps
Channel(s)                               : 2 channels
Channel positions                        : Front: L R
Sampling rate                            : 48.0 KHz
Bit depth                                : 16 bits
Compression mode                         : Lossy
Stream size                              : 181 MiB (12%)
Alignment                                : Split accross interleaves
Interleave, duration                     : 40 ms (1.00 video frame)
Interleave, preload duration             : 500 ms

Сравнение

http://rutracker.org/forum/viewtopic.php?t=5039775
http://screenshotcomparison.com/comparison/134576
+ дефолтной матрицей напрочь угробили детализацию
http://screenshotcomparison.com/comparison/134577
-


Смотреть онлайн

[trackeroc.ru].6916.torrent 
Торрент: Зарегистрирован   [ 2015-07-13 17:27 ]

Скачать торрент

15 KB

Статус: проверено
Скачан: 17 раз
Размер: 1.46 GB
 

mikkola_losif (13-июл-15)

_________________
[Профиль] [ЛС]
Показать сообщения:    
Ответить на тему

Текущее время: Сегодня 06:53

Часовой пояс: GMT + 4



Вы не можете начинать темы
Вы не можете отвечать на сообщения
Вы не можете редактировать свои сообщения
Вы не можете удалять свои сообщения
Вы не можете голосовать в опросах
Вы не можете прикреплять файлы к сообщениям
Вы можете скачивать файлы