Новые приключения кота Леопольда (2015) SATRip (13 серий)

Ответить на тему

Статистика раздачи [Обновить пиров]
Размер:  2.21 GB   |    Зарегистрирован:  11 месяцев 2 дня   |    Скачан:  8 раз
Сидов:  2  [  0 KB/s  ]   Подробная статистика пиров
   
 
Автор Сообщение

BiOS ®

Стаж: 2 года 7 месяцев

Сообщений: 1730

Откуда: Raccoon City


Пост 04-Янв-2016 15:58

[Цитировать]

Новые приключения кота Леопольда - Производство: Россия, Теремок ТВ, Русское мобильное телевидение
Жанр: Мультсериал, рисованный, детский
Режиссер: Анатолий Резников
Актеры: Александр Калягин, Диомид Виноградов, Андрей Бархударов
Описание:
Встречайте старого знакомого - самого доброго кота в мире - Леопольда в новых сериях! Как и все, Леопольд собирается встретить Новый год, но маленькие мышата хотят все испортить, потому что считают, что кот слишком счастливый...
Продолжительность: ~ 00:14:00 серия
Качество видео: SATRip
Субтитры: Отсутствуют
Видео: MPEG4, XviD, 720x400 (16:9), 50.000 fps, 1 600 Kbps (0.111 bit/pixel)
Аудио: AC-3, 48.0 KHz, 2 ch, 192 Kbps, CBR

Mediainfo:

Код:
Формат                                   : AVI
Формат/Информация                        : Audio Video Interleave
Размер файла                             : 159 Мбайт
Продолжительность                        : 12 м.
Общий поток                              : 1808 Кбит/сек
Программа кодирования                    : Lavf56.25.101
Видео
Идентификатор                            : 0
Формат                                   : MPEG-4 Visual
Профиль формата                          : Advanced Simple@L5
Параметр BVOP формата                    : 1
Параметр QPel формата                    : Нет
Параметр GMC формата                     : Без точки перехода
Параметр матрицы формата                 : Default (H.263)
Идентификатор кодека                     : XVID
Идентификатор кодека/Подсказка           : XviD
Продолжительность                        : 12 м.
Битрейт                                  : 1600 Кбит/сек
Ширина                                   : 720 пикселей
Высота                                   : 400 пикселей
Соотношение сторон                       : 16:9
Частота кадров                           : 50,000 кадров/сек
Цветовое пространство                    : YUV
Субдискретизация насыщенности            : 4:2:0
Битовая глубина                          : 8 бит
Тип развёртки                            : Прогрессивная
Метод сжатия                             : С потерями
Бит/(Пиксели*Кадры)                      : 0.111
Размер потока                            : 141 Мбайт (88%)
Библиотека кодирования                   : XviD 67
Аудио
Идентификатор                            : 1
Формат                                   : AC-3
Формат/Информация                        : Audio Coding 3
Расширение режима                        : CM (complete main)
Параметр Endianness формата              : Big
Идентификатор кодека                     : 2000
Продолжительность                        : 12 м.
Вид битрейта                             : Постоянный
Битрейт                                  : 192 Кбит/сек
Каналы                                   : 2 канала
Расположение каналов                     : Front: L R
Частота                                  : 48,0 КГц
Битовая глубина                          : 16 бит
Метод сжатия                             : С потерями
Размер потока                            : 16,9 Мбайт (11%)
Выравнивание                             : Соединение по промежуткам
Продолжительность промежутка             : 32  мс. (1,60 видеокадра)

Содержание:

01. Лавина с гор
02. Сплошные неприятности
03. Всё кувырком
04. Кулинарный рецепт
05. Птицы
06. Ремонт в тылу врага
07. Такси вызывали?
08. Новогодняя ёлка
09. Бурный поток
10. На рыбалке у реки
11. Под жарким солнцем
12. Вперёд за колбасой и сыром
13. Парк развлечений
-Скриншоты:


Смотреть онлайн

[trackeroc.ru].10861.torrent 
Торрент: Зарегистрирован   [ 2016-01-04 15:58 ]

Скачать торрент

13 KB

Статус: проверено
Скачан: 178 раз
Размер: 2.21 GB
 

Admin (04-янв-16)
Похожие торренты
Форум Тема Автор Размер
Российские сериалы Жизнь и приключения Мишки Япончика (2011) HDTV (серии 12 из 12) BiOS 15.74 GB
Российские Приключения Артемки (1956) TVRip BiOS 1.3 GB
Комедии Приключения Петрова и Васечкина, обыкновенные и невероятные (1983) DVDRip [Две серии] BiOS 1.37 GB
Российские Приключения Толи Клюквина (1964) DVDRip BiOS 700 MB
Отечественные Мультсериалы Три кота (2015) WEB-DLRip (сезон 1, серии 1-12 из ?) Admin 1.41 GB

_________________
[Профиль] [ЛС]
Показать сообщения:    
Ответить на тему

Текущее время: Сегодня 16:05

Часовой пояс: GMT + 4



Вы не можете начинать темы
Вы не можете отвечать на сообщения
Вы не можете редактировать свои сообщения
Вы не можете удалять свои сообщения
Вы не можете голосовать в опросах
Вы не можете прикреплять файлы к сообщениям
Вы можете скачивать файлы