Области тьмы / Limitless (Расширенная версия / Unrated Extended Cut) (2011) BDRip

Ответить на тему

Статистика раздачи [Обновить пиров]
Размер:  1.93 GB   |    Зарегистрирован:  1 год 1 месяц   |    Скачан:  5 раз

Полного источника не было: 2 месяца 10 дней

 
 
 
 
Автор Сообщение

BiOS ®

Стаж: 2 года 7 месяцев

Сообщений: 1732

Откуда: Raccoon City


Пост 20-Окт-2015 14:43

[Цитировать]

Области тьмы / Limitless - Русское название: Области тьмы
Оригинальное название: Limitless
Год выпуска: 2011
Жанр: Фантастика, Триллер, Детектив
Описание фильма:
Нью-йоркский писатель Эдди, желая преодолеть чёрную полосу в жизни, принимает засекреченный препарат под названием NZT. Таблетка выводит мозг парня на работу в нереальной мощности. Этот творческий наркотик меняет всю жизнь Эдди, за короткий срок он зарабатывает кучу денег, но скоро начинает страдать от зловещих побочных эффектов препарата. А когда пытается найти других NZT-гениев, чтобы понять, как можно справиться с этим пристрастием, он узнает страшную правду…
Режиссер: Нил Бёргер / Neil Burger
Актеры: Брэдли Купер, Роберт Де Ниро, Эбби Корниш, Эндрю Ховард, Анна Фрил, Джонни Витуорт, Томас Арана, Роберт Джон Бёрк, Даррен Голдштейн, Нед Эйзенберг
Продолжительность: 01:45:33
Перевод: Авторский (одноголосый, закадровый) Андрей Гаврилов
Оригинальный аудиопоток: английский
Субтитры: нет
Источник/Качество: BDRip
Контейнер: AVI
Видео: 720x304 (2.37:1), 23.976 fps, XviD MPEG-4 ~1712 kbps avg, 0.33 bit/pixel
Аудио#1: 48 kHz, AC3 Dolby Digital, 3/2 (L,C,R,l,r) + LFE ch, ~448 kbps - Гаврилов
Аудио#2: 48 kHz, AC3 Dolby Digital, 3/2 (L,C,R,l,r) + LFE ch, ~448 kbps - Английская

Доп. информация

Сборка дороги Гаврилова DTS-HD MA - Bloodymetal
Перевод у А. Гаврилова состоялся благодаря dunhill200.

Знаете ли Вы что...

• В основе фильма лежит одноимённый роман Алана Глинна.
• Главную роль в фильме должен был играть Шайа ЛаБаф, но актер вынужденно отказался от проекта, когда попал в автомобильную аварию и повредил руку.

Награды

Сатурн, 2012 год
Номинации (1):
Лучший научно-фантастический фильм

Media Info

Общее
Полное имя : D:\Мои документы\Кинофильмы\Кино\Мои раздачи (незаболваненные)\Limitless (Gavrilov, Eng) (BDRip) by A.P..avi
Формат : AVI
Формат/Информация : Audio Video Interleave
Размер файла : 1,93 Гбайт
Продолжительность : 1 ч. 45 м.
Общий поток : 2623 Кбит/сек
Программа кодирования : VirtualDubMod 1.5.10.3 | www.virtualdub-fr.org || (build 2550/release)
Библиотека кодирования : VirtualDubMod build 2550/release
Видео
Идентификатор : 0
Формат : MPEG-4 Visual
Профиль формата : Advanced Simple@L5
Параметр BVOP формата : 1
Параметр QPel формата : Нет
Параметр GMC формата : Без точки перехода
Параметр матрицы формата : Выборочная
Идентификатор кодека : XVID
Идентификатор кодека/Подсказка : XviD
Продолжительность : 1 ч. 45 м.
Битрейт : 1713 Кбит/сек
Ширина : 720 пикселей
Высота : 304 пикселя
Соотношение сторон : 2,35:1
Частота кадров : 23,976 кадра/сек
Цветовое пространство : YUV
Субдискретизация насыщенности : 4:2:0
Битовая глубина : 8 бит
Тип развёртки : Прогрессивная
Метод сжатия : С потерями
Бит/(Пиксели*Кадры) : 0.326
Размер потока : 1,26 Гбайт (65%)
Библиотека кодирования : XviD 73
Аудио #1
Идентификатор : 1
Формат : AC-3
Формат/Информация : Audio Coding 3
Расширение режима : CM (complete main)
Параметр Endianness формата : Big
Идентификатор кодека : 2000
Продолжительность : 1 ч. 45 м.
Вид битрейта : Постоянный
Битрейт : 448 Кбит/сек
Каналы : 6 каналов
Расположение каналов : Front: L C R, Side: L R, LFE
Частота : 48,0 КГц
Битовая глубина : 16 бит
Метод сжатия : С потерями
Размер потока : 338 Мбайт (17%)
Выравнивание : Разделение по промежуткам
Продолжительность промежутка : 42 мс. (1,00 видеокадр)
Время предзагрузки промежутка : 500 мс.
Аудио #2
Идентификатор : 2
Формат : AC-3
Формат/Информация : Audio Coding 3
Расширение режима : CM (complete main)
Параметр Endianness формата : Big
Идентификатор кодека : 2000
Продолжительность : 1 ч. 45 м.
Вид битрейта : Постоянный
Битрейт : 448 Кбит/сек
Каналы : 6 каналов
Расположение каналов : Front: L C R, Side: L R, LFE
Частота : 48,0 КГц
Битовая глубина : 16 бит
Метод сжатия : С потерями
Размер потока : 338 Мбайт (17%)
Выравнивание : Разделение по промежуткам
Продолжительность промежутка : 42 мс. (1,00 видеокадр)
Время предзагрузки промежутка : 500 мс.



Смотреть онлайн

[trackeroc.ru].9030.torrent 
Торрент: Зарегистрирован   [ 2015-10-20 14:43 ]

Скачать торрент

20 KB

Статус: проверено
Скачан: 22 раз
Размер: 1.93 GB
 

Admin (20-окт-15), Lekter (20-окт-15)
Похожие торренты
Форум Тема Автор Размер
Квесты , я ищу , Поиск предметов Hidden Object Dark Canvas 3: A Murder Exposed [CE] / Холcт Тьмы 3. Открытое убийство [КИ] [P] [RUS/ENG / ENG] (2015) HOPE 678 MB
Квесты , я ищу , Поиск предметов Hidden Object Dark Romance 3: The Swan Sonata CE/Роман тьмы 3. Лебединое озеро. (2015) (Alawar) (RUS) [P] HOPE 1.11 GB
Квесты , я ищу , Поиск предметов Hidden Object Dark Dimensions 4: Somber Song Collector’s Edition/ Измерения тьмы 4. Мрачный этюд (2014) (Alawar) (RUS) [P] HOPE 1.48 GB
Зарубежные сериалы Области тьмы / Limitless / Сезон: 1 / Серии: 1-22 [2015] Admin 15.72 GB
Фантастика Фэнтези Зловещие мертвецы 3: Армия тьмы / Army of Darkness (1992) BDRip Angel 2.05 GB

_________________
[Профиль] [ЛС]
Показать сообщения:    
Ответить на тему

Текущее время: Сегодня 12:03

Часовой пояс: GMT + 4



Вы не можете начинать темы
Вы не можете отвечать на сообщения
Вы не можете редактировать свои сообщения
Вы не можете удалять свои сообщения
Вы не можете голосовать в опросах
Вы не можете прикреплять файлы к сообщениям
Вы можете скачивать файлы