Очень странные дела / Странные вещи / Stranger Things (2017) WEBRip [H.264/1080p-LQ] (сезон 2, серии 1-9 из 9) OMSKBIRD [AD] скачать торрент

Ответить на тему

Статистика раздачи [Обновить пиров]
Размер:  13.33 GB   |    Зарегистрирован:  1 месяц 19 дней   |    Скачан:  0 раз

Полного источника не было: 20 часов

Личеров:  1  [  0 KB/s  ]   Подробная статистика пиров
 
   
 
 
 
Автор Сообщение

BiOS ®

Стаж: 3 года 8 месяцев

Сообщений: 2024

Откуда: Raccoon City


Пост 28-Окт-2017 11:39

[Цитировать]

Очень странные дела / Странные вещи / Stranger Things- Производство: США / Netflix
Жанр: ужасы, фантастика, фэнтези, триллер, драма, детектив
Режиссер: Братья Дафферы
Актеры: Вайнона Райдер, Дэвид Харбор, Финн Вулфхарт, Милли Бобби Браун, Гейтен Матараццо, Кейлеб МакЛохлен, Наталия Дайер, Чарли Хитон, Кейра Буоно, Мэттью Модайн и др.
Описание:
Действие сериала разворачивается в 80-х годах в тихом провинциальном городке. Благоприятное течение местной жизни нарушает загадочное исчезновение подростка по имени Уилл. Выяснить обстоятельства дела полны решимости родные мальчика и местный шериф. Также события затрагивают лучшего друга Уилла — Майка. Он начинает собственное расследование. Майк уверен, что близок к разгадке, и теперь ему предстоит оказаться в эпицентре ожесточенной битвы потусторонних сил.
Продолжительность: ~00:50:00 серия
Качество видео: WEBRip
Перевод: Многоголосый закадровый, профессиональный | OMSKBIRD
Субтитры: английские
Реклама: присутствуют аудио вставки рекламы
Видео: AVC/H.264, 1920х1080, ~3645 kbps
Аудио # 1: AC-3, 6 ch, 384 kbps, CBR - русский, многоголосый закадровый
Аудио # 2: AC-3, 6 ch, 384 kbps, CBR - английский

Mediainfo:

General
Format : Matroska
Format version : Version 2
File size : 1.50 GiB
Duration : 47 min 49 s
Overall bit rate mode : Variable
Overall bit rate : 4 502 kb/s
Encoded date : UTC 2017-10-27 20:19:54
Writing application : mkvmerge v4.0.0 ('The Stars were mine') сборка от Jun 6 2010 16:18:42
Writing library : libebml v1.0.0 + libmatroska v1.0.0
Video
ID : 1
Format : AVC
Format/Info : Advanced Video Codec
Format profile : Main@L4
Format settings, CABAC : Yes
Format settings, RefFrames : 3 frames
Codec ID : V_MPEG4/ISO/AVC
Duration : 47 min 49 s
Bit rate mode : Variable
Bit rate : 3 645 kb/s
Nominal bit rate : 3 830 kb/s
Maximum bit rate : 5 745 kb/s
Width : 1 920 pixels
Height : 1 080 pixels
Display aspect ratio : 16:9
Frame rate mode : Constant
Frame rate : 23.976 (24000/1001) FPS
Color space : YUV
Chroma subsampling : 4:2:0
Bit depth : 8 bits
Scan type : Progressive
Bits/(Pixel*Frame) : 0.073
Stream size : 1.22 GiB (81%)
Writing library : x264 core 148
Encoding settings : cabac=1 / ref=3 / deblock=1:0:0 / analyse=0x1:0x111 / me=umh / subme=10 / psy=1 / psy_rd=1.00:0.00 / mixed_ref=1 / me_range=24 / chroma_me=1 / trellis=2 / 8x8dct=0 / cqm=0 / deadzone=21,11 / fast_pskip=1 / chroma_qp_offset=-2 / threads=8 / lookahead_threads=1 / sliced_threads=0 / nr=0 / decimate=1 / interlaced=0 / bluray_compat=0 / stitchable=1 / constrained_intra=0 / bframes=2 / b_pyramid=0 / b_adapt=2 / b_bias=0 / direct=3 / weightb=1 / open_gop=0 / weightp=2 / keyint=48 / keyint_min=25 / scenecut=0 / intra_refresh=0 / rc_lookahead=48 / rc=2pass / mbtree=1 / bitrate=3830 / ratetol=1.0 / qcomp=0.50 / qpmin=6 / qpmax=51 / qpstep=4 / cplxblur=20.0 / qblur=0.5 / vbv_maxrate=5745 / vbv_bufsize=7660 / nal_hrd=vbr / filler=0 / ip_ratio=1.40 / aq=1:1.00
Default : No
Forced : No
Audio #1
ID : 2
Format : AC-3
Format/Info : Audio Coding 3
Format settings, Endianness : Big
Codec ID : A_AC3
Duration : 47 min 49 s
Bit rate mode : Constant
Bit rate : 384 kb/s
Channel(s) : 6 channels
Channel positions : Front: L C R, Side: L R, LFE
Sampling rate : 48.0 kHz
Frame rate : 31.250 FPS (1536 SPF)
Bit depth : 16 bits
Compression mode : Lossy
Stream size : 131 MiB (9%)
Language : Russian
Service kind : Complete Main
Default : Yes
Forced : No
Audio #2
ID : 3
Format : AC-3
Format/Info : Audio Coding 3
Format settings, Endianness : Big
Codec ID : A_AC3
Duration : 47 min 49 s
Bit rate mode : Constant
Bit rate : 384 kb/s
Channel(s) : 6 channels
Channel positions : Front: L C R, Side: L R, LFE
Sampling rate : 48.0 kHz
Frame rate : 31.250 FPS (1536 SPF)
Bit depth : 16 bits
Compression mode : Lossy
Stream size : 131 MiB (9%)
Language : English
Service kind : Complete Main
Default : No
Forced : No
Text
ID : 4
Format : UTF-8
Codec ID : S_TEXT/UTF8
Codec ID/Info : UTF-8 Plain Text
Language : English
Default : No
Forced : No
-Скриншоты:


Смотреть онлайн

[trackeroc.ru].22748.torrent 
 СЕРЕБРЯНАЯ РАЗДАЧА! СКАЧАННОЕ ЗАСЧИТЫВАЕТСЯ ТОЛЬКО НАПОЛОВИНУ! 
Торрент: Зарегистрирован   [ 2017-10-30 05:50 ]

Скачать торрент

35 KB

Статус: проверено
Скачан: 15 раз
Размер: 13.33 GB
 

Admin (28-окт-17)

Похожие торренты
Форум Тема Автор Размер
Зарубежные сериалы Тёмная материя / Тёмные дела / Dark Matter (2016) (сезон 2, серии 1-13 из 13) Admin 7.06 GB
Квесты, я ищу, Поиск предметов, Hidden Object Cursed Cases: Murder At The Maybard Estate Collectors Edition / Проклятые дела: Убийство в особняке Мейбард [P] [RUS / ENG] (2016) HOPE 977 MB
Зарубежные сериалы Очень странные дела / Странные вещи / Stranger Things (2016) WEBRip (сезон 1, серии 1-8 из 8) LostFilm BiOS 14.36 GB
Зарубежные Робинзон Крузо: Очень обитаемый остров / Robinson Crusoe (2016) BDRip Admin 1.45 GB

_________________
[Профиль] [ЛС]
Показать сообщения:    
Ответить на тему

Текущее время: Сегодня 18:39

Часовой пояс: GMT + 4



Вы не можете начинать темы
Вы не можете отвечать на сообщения
Вы не можете редактировать свои сообщения
Вы не можете удалять свои сообщения
Вы не можете голосовать в опросах
Вы не можете прикреплять файлы к сообщениям
Вы можете скачивать файлы