Один день, одна ночь [серии 1-4 из 4] (Петр Амелин) [2015, Детектив, SATRip]

Ответить на тему

Статистика раздачи [Обновить пиров]
Размер:  2.35 GB   |    Зарегистрирован:  1 год 1 месяц   |    Скачан:  7 раз
Сидов:  3  [  0 KB/s  ]   Личеров:  2  [  0 KB/s  ]   Подробная статистика пиров
   
 
Автор Сообщение

Матвей ®

Стаж: 1 год 2 месяца

Сообщений: 236

Откуда: Челябинск


Пост 10-Окт-2015 16:56

[Цитировать]

Один день, одна ночь - Производство: ООО «Прогресс-Студия», ООО «Форвард-Фильм»
Жанр: Детектив
Режиссер: Петр Амелин
Актеры: Анастасия Фомина, Анатолий Друзенко, Анна Лапина, Антон Ксенев, Валентина Кособуцкая, Виктор Гахов, Владимир Шагин, Геннадий Смирнов, Дмитрий Паламарчук, Елена Тепляшина, Ирина Полянская, Кристина Бабушкина, Кристина Кузьмина, Ксения Ирхина, Максим Сергеев, Максим Фомин, Мария Литвин, Наталья Высочанская, Наталья Кутасова, Олег Андреев, Павел Григорьев, Павел Трубинер, Роман Притула, Сергей Маркеев, Филипп Дьячков
Описание:
В подъезде дома, где живет автор детективных романов Маня Поливанова, убит ее старый друг, накануне заходивший на "рюмку чаю" и разговоры о вечном. Деньги и ценности остались при нем, а он сам не был ни криминальным авторитетом, ни большим политиком, ни богачом. Так за что его убили? Алекс Шан-Гирей, возлюбленный Поливановой и по совместительству гений мировой литературы, может быть и не похож на "настоящего героя". Он рассеян и очень любит копаться в себе. Тем не менее, он точно знает: разбираться в очередном происшествии, в которое угодила его подруга, предстоит именно ему. Один день и одна ночь - это очень много! Они изменят всю дальнейшую жизнь героев, и у них есть только один шанс сохранить самих себя и свой мир - установить истину.
Дата премьеры в России: 10 октября 2015
Продолжительность: ~ 00:43:27 серия
Качество видео: SATRip
Видео: Xvid, 720x448, ~1800 Кбит/с
Аудио: MP3, 2 ch, 128 Кбит/с, CBR

Mediainfo:

Код:
Общее
Формат                                   : AVI
Формат/Информация                        : Audio Video Interleave
Размер файла                             : 602 Мбайт
Продолжительность                        : 43 м.
Общий поток                              : 1937 Кбит/сек
Библиотека кодирования                   : VirtualDub build 32817/release
Видео
Идентификатор                            : 0
Формат                                   : MPEG-4 Visual
Профиль формата                          : Advanced Simple@L5
Параметр BVOP формата                    : 2
Параметр QPel формата                    : Нет
Параметр GMC формата                     : Без точки перехода
Параметр матрицы формата                 : Default (MPEG)
Идентификатор кодека                     : XVID
Идентификатор кодека/Подсказка           : XviD
Продолжительность                        : 43 м.
Битрейт                                  : 1800 Кбит/сек
Ширина                                   : 720 пикселей
Высота                                   : 448 пикселей
Соотношение сторон                       : 16:10
Частота кадров                           : 25,000 кадров/сек
Цветовое пространство                    : YUV
Субдискретизация насыщенности            : 4:2:0
Битовая глубина                          : 8 бит
Тип развёртки                            : Прогрессивная
Метод сжатия                             : С потерями
Бит/(Пиксели*Кадры)                      : 0.223
Размер потока                            : 559 Мбайт (93%)
Библиотека кодирования                   : XviD 1.2.1 (UTC 2008-12-04)
Аудио
Идентификатор                            : 1
Формат                                   : MPEG Audio
Версия формата                           : Version 1
Профиль формата                          : Layer 3
Режим                                    : Joint stereo
Расширение режима                        : MS Stereo
Идентификатор кодека                     : 55
Идентификатор кодека/Подсказка           : MP3
Продолжительность                        : 43 м.
Вид битрейта                             : Постоянный
Битрейт                                  : 128 Кбит/сек
Каналы                                   : 2 канала
Частота                                  : 48,0 КГц
Метод сжатия                             : С потерями
Размер потока                            : 39,8 Мбайт (7%)
Выравнивание                             : Разделение по промежуткам
Продолжительность промежутка             : 40  мс. (1,00 видеокадр)
Время предзагрузки промежутка            : 500  мс.
Библиотека кодирования                   : LAME3.99r
Настройки программы                      : -m j -V 4 -q 2 -lowpass 17 -b 128
-Скриншоты:


Смотреть онлайн

[trackeroc.ru].8556.torrent 
Торрент: Зарегистрирован   [ 2015-10-10 16:56 ]

Скачать торрент

13 KB

Статус: проверено
Скачан: 37 раз
Размер: 2.35 GB
 

Похожие торренты
Форум Тема Автор Размер
Логические игры, пазлы ,три в ряд Sakura Day 2. Mahjong / День сакуры 2. Маджонг (2016) [RUS] [P] HOPE 44 MB
Комедии Еще один мальчишник / The night before (2015) WEB-DLRip BiOS 1.37 GB
Фантастика Фэнтези Небольшое привидение: Одна ночь в проклятом доме / Mostly Ghostly 3: One Night in Doom House (2016) WEB-DLRip BiOS 1.37 GB
Приключенческие игры Adventure Петька и Василий Иванович 2: Судный день. Перезагрузка / Red Comrades 2: For the Great Justice. Reloaded (2016) [RUS/ENG] DarthNihilus 189 MB
Фантастика Фэнтези День независимости: Возрождение / Independence Day: Resurgence (2016) WEBRip | D | звук c CAMRip BiOS 1.37 GB

_________________

[Профиль] [ЛС]
Показать сообщения:    
Ответить на тему

Текущее время: Сегодня 23:58

Часовой пояс: GMT + 4



Вы не можете начинать темы
Вы не можете отвечать на сообщения
Вы не можете редактировать свои сообщения
Вы не можете удалять свои сообщения
Вы не можете голосовать в опросах
Вы не можете прикреплять файлы к сообщениям
Вы можете скачивать файлы