Однажды в сказке / Once Upon a Time / Сезон: 1 / Серии: 1-22 из 22 [2011] (Невафильм)

Ответить на тему

Статистика раздачи [Обновить пиров]
Скачали
Размер:  10.74 GB   |    Зарегистрирован:  1 год 1 месяц   |    Скачан:  3 раза

Полного источника не было: 12 дней

 
 
 
 
Автор Сообщение

Angel ®

Стаж: 1 год 3 месяца

Сообщений: 31


Пост 22-Окт-2015 03:50

[Цитировать]

Однажды в сказке / Давным-давно / В некотором царстве / Once Upon a Time«Добро пожаловать в Сторибрук»-- Год выпуска: 2011
Страна: США
Жанр: драма, фэнтези
Продолжительность: 45 мин
Перевод: Полное дублирование(Невафильм)
Субтитры: нет
Режиссер: Грег Биман, Марк Майлод, Дин Уайт
-В ролях:
Джиннифер Гудвин, Дженнифер Моррисон, Роберт Карлайл, Лана Паррилла, Джаред Гилмор, Джошуа Даллас, Рафаэль Сбардж, Меган Ори, Джеми Дорнан, Беверли Эллиотт
Описание:
Сюжет фэнтези разворачивается в двух мирах — современном и сказочном. Беззаботная жизнь 28-летней Эммы Свон меняется, когда ее 10-летний сын Генри, от которого она отказалась много лет назад, находит Эмму и объявляет, что она является дочерью Прекрасного Принца и Белоснежки. Само собой разумеется, у мальчишки нет никаких сомнений, что параллельно нашему существует альтернативный сказочный мир — город Сторибрук, в котором в итоге оказывается Эмма. Постепенно героиня привязывается к необычному мальчику и странному городу, жители которого «забыли», кем они были в прошлом. А все из-за проклятия Злой Королевы (по совместительству приемной матери Генри), с помощью которого колдунья остановила время в сказочной стране. Однако стоит протянуть руку — и сказка оживет. Эпическая битва за будущее двух миров начинается, но, чтобы одержать победу, Эмме придется принять свою судьбу…
-Качество: WEB-DLRip
Формат: AVI
Видео кодек: XviD
Аудио кодек: MP3
Видео: 720x400 (1.80:1), 23.976 fps, XviD build 64 ~1329 kbps avg, 0.19 bit/pixel
Audio Rus: 48 kHz, MPEG Layer 3, 2 ch, ~128.00 kbps avg
Audio Eng: 48 kHz, MPEG Layer 3, 2 ch, ~128.00 kbps avg
-
Звук предоставил: Baggio
Подготовка видео: Baggio
Работа со звуком: Baggio

MI

General
Complete name : F:\ФТП 2\Work\NewStudio\Once Upon A Time Season 1\Once.Upon.a.Time.s01e01.WEBDLRip.NewStudio.TV.avi
Format : AVI
Format/Info : Audio Video Interleave
File size : 500 MiB
Duration : 43mn 41s
Overall bit rate : 1 600 Kbps
Writing application : VirtualDubMod 1.5.10.2 (build 2540/release)
Writing library : VirtualDubMod build 2540/release
Video
ID : 0
Format : MPEG-4 Visual
Format profile : Advanced Simple@L5
Format settings, BVOP : 2
Format settings, QPel : No
Format settings, GMC : No warppoints
Format settings, Matrix : Default (MPEG)
Codec ID : XVID
Codec ID/Hint : XviD
Duration : 43mn 41s
Bit rate : 1 330 Kbps
Width : 720 pixels
Height : 400 pixels
Display aspect ratio : 16:9
Frame rate : 23.976 fps
Color space : YUV
Chroma subsampling : 4:2:0
Bit depth : 8 bits
Scan type : Progressive
Compression mode : Lossy
Bits/(Pixel*Frame) : 0.193
Stream size : 416 MiB (83%)
Writing library : XviD 64
Audio #1
ID : 1
Format : MPEG Audio
Format version : Version 1
Format profile : Layer 3
Mode : Joint stereo
Mode extension : MS Stereo
Codec ID : 55
Codec ID/Hint : MP3
Duration : 43mn 41s
Bit rate mode : Constant
Bit rate : 128 Kbps
Channel(s) : 2 channels
Sampling rate : 48.0 KHz
Compression mode : Lossy
Stream size : 40.0 MiB (8%)
Alignment : Aligned on interleaves
Interleave, duration : 42 ms (1.00 video frame)
Interleave, preload duration : 504 ms
Audio #2
ID : 2
Format : MPEG Audio
Format version : Version 1
Format profile : Layer 3
Mode : Joint stereo
Codec ID : 55
Codec ID/Hint : MP3
Duration : 43mn 41s
Bit rate mode : Constant
Bit rate : 128 Kbps
Channel(s) : 2 channels
Sampling rate : 48.0 KHz
Compression mode : Lossy
Stream size : 40.0 MiB (8%)
Alignment : Aligned on interleaves
Interleave, duration : 42 ms (1.00 video frame)
Interleave, preload duration : 504 ms

Список серий

01. «Pilot» / «Пилотная Серия»
02. «The Thing You Love the Most» / «То, Что Мы Больше Всего Любим»
03. «Snow Falls» / «Снегопад»
04. «The Price of Gold» / «Цена Золота»
05. «That Still Small Voice» / «Этот Тихий Голос»
06. «The Shepherd» / «Пастух»
07. «The Heart Is a Lonely Hunter» / «Сердце - Одинокий Скиталец»
08. «Desperate Souls» / «Отчаявшиеся Души»
09. «True North» / «Верный Север»
10. «7:15am» / «7:15 до Полудня»
11. «The Fruit of the Poisonous Tree» / «Плод Ядовитого Дерева»
12. «Skin Deep» / «Внешность Обманчива»
13. «What Happened to Frederick» / «Что Случилось с Фредериком»
14. «Dreamy» / «Мечтательный»
15. «Red-Handed» / «Пойманный с Поличным»
16. «Heart of Darkness» / «Сердце Тьмы»
17. «Hat Trick» / «Трюк со Шляпой»
18. «Stable Boy» / «Помощник Конюха»
19. «The Return» / «Возвращение»
20. «The Stranger» / «Странник»
21. «Apple Red as Blood» / «Красное Как Кровь Яблоко»
22. «A Land Without Magic» / «Страна Без Волшебства»


Смотреть онлайн

[trackeroc.ru].9076.torrent 
Торрент: Зарегистрирован   [ 2015-10-22 03:54 ]

Скачать торрент

29 KB

Статус: проверено
Скачан: 13 раз
Размер: 10.74 GB
 

BiOS (22-окт-15), Admin (22-окт-15)
Похожие торренты
Форум Тема Автор Размер
Зарубежные сериалы Однажды ночью / Той ночью / The Night Of (2016) HDTVRip (сезон 1, серии 1-8 из 8) NewStudio BiOS 6.55 GB
Зарубежные сериалы Однажды в сказке / Once Upon a Time / Сезон: 4 / Серии: 1-23 из 23 [2014] (Невафильм) BiOS 11.22 GB
Зарубежные сериалы Однажды в сказке / Once Upon a Time / Сезон: 5 / Серии: 1-20 из 23 [2015] (Невафильм) Admin 12.54 GB
Зарубежные сериалы Однажды в сказке / Once Upon a Time / Сезон: 3 / Серии: 1-22 из 22 [2013-2014] (Невафильм) Angel 9.62 GB
[Профиль] [ЛС]
Показать сообщения:    
Ответить на тему

Текущее время: Сегодня 06:09

Часовой пояс: GMT + 4



Вы не можете начинать темы
Вы не можете отвечать на сообщения
Вы не можете редактировать свои сообщения
Вы не можете удалять свои сообщения
Вы не можете голосовать в опросах
Вы не можете прикреплять файлы к сообщениям
Вы можете скачивать файлы