Однажды в сказке / Once Upon a Time / Сезон: 3 / Серии: 1-22 из 22 [2013-2014] (Невафильм)

Ответить на тему

Статистика раздачи [Обновить пиров]
Размер:  9.62 GB   |    Зарегистрирован:  1 год 1 месяц   |    Скачан:  2 раза
DL-List: Нет

Полного источника не было: 2 месяца 19 дней

 
 
 
 
Автор Сообщение

Angel ®

Стаж: 1 год 3 месяца

Сообщений: 31


Пост 22-Окт-2015 03:58

[Цитировать]

Однажды в сказке / Давным-давно / В некотором царстве / Once Upon a Time«Добро пожаловать в Сторибрук»-- Год выпуска: 2013-2014
Страна: США
Жанр: драма, фэнтези
Продолжительность: 00:42:55
Перевод: Профессиональный (дублированный) |Невафильм|
Субтитры: нет-Режиссёр: Дин Уайт, Ральф Хемекер, Дэвид Соломон / Dean White, Ralph Hemecker, David Solomon-В ролях: Дженнифер Моррисон, Джиннифер Гудвин, Роберт Карлайл, Лана Паррия, Джошуа Даллас, Джаред Гилмор, Рафаэль Сбардж, Меган Ори, Эмили де Рэйвин, Колин О’Донохью-Описание: Сюжет фэнтези разворачивается в двух мирах — современном и сказочном. Беззаботная жизнь 28-летней Эммы Свон меняется, когда ее 10-летний сын Генри, от которого она отказалась много лет назад, находит Эмму и объявляет, что она является дочерью Прекрасного Принца и Белоснежки. Само собой разумеется, у мальчишки нет никаких сомнений, что параллельно нашему существует альтернативный сказочный мир — город Сторибрук, в котором в итоге оказывается Эмма. Постепенно героиня привязывается к необычному мальчику и странному городу, жители которого «забыли», кем они были в прошлом. А все из-за проклятия Злой Королевы (по совместительству приемной матери Генри), с помощью которого колдунья остановила время в сказочной стране. Однако стоит протянуть руку — и сказка оживет. Эпическая битва за будущее двух миров начинается, но, чтобы одержать победу, Эмме придется принять свою судьбу…- -Сэмпл: http://multi-up.com/927743-Качество: WEB-DLRip [Once.Upon.A.Time.S03E01.1080p.WEB-DL.DD5.1.H.264-ECI]
Формат: AVI
Видео: 704x400 (1.76:1), 23.976 fps, XviD build 65 ~1324 kbps avg, 0.20 bit/pixel
Аудио: 48 kHz, MPEG Layer 3, 2 ch, ~128.00 kbps avg
-

Список серий


01. Сердце истинно верующего / The Heart of the Truest Believer
02. Потерянная девушка / Lost Girl
03. Типичная фея / Quite a Common Fairy
04. Дурные привычки / Nasty Habits
05. Хорошие манеры / Good Form
06. Ариэль / Ariel
07. Темная лощина / Dark Hollow
08. Лелеять прекрасные мысли / Think Lovely Thoughts
09. Спасти Генри / Save Henry
10. Новый Неверлэнд / The New Neverland
11. Иду Домой / Going Home
12. Серенада Нью-Йорка / New York City Serenade
13. Охота на ведьм / Witch Hunt
14. Башня / The Tower
15. Спокойный характер / Quiet Minds
16. Не легко быть зеленым / It's Not Easy Being Green
17. Веселый Роджер / The Jolly Roger
18. Проступающий / Bleeding Through
19. Любопытная вещь / A Curious Thing
20. Канзас / Kansas
21. Метель / Snow Drifts
22. Нет места лучше дома / There's No Place Like Home

MediaInfo

Код:
Формат                                   : AVI
Формат/Информация                        : Audio Video Interleave
Размер файла                             : 449 Мбайт
Продолжительность                        : 42 м.
Общий поток                              : 1462 Кбит/сек
Программа кодирования                    : VirtualDubMod 1.5.10.3 | www.virtualdub-fr.org || (build 2550/release)
Библиотека кодирования                   : VirtualDubMod build 2550/release
Видео
Идентификатор                            : 0
Формат                                   : MPEG-4 Visual
Профиль формата                          : Advanced Simple@L5
Параметр BVOP формата                    : 1
Параметр QPel формата                    : Нет
Параметр GMC формата                     : Без точки перехода
Параметр матрицы формата                 : Выборочная
Идентификатор кодека                     : XVID
Идентификатор кодека/Подсказка           : XviD
Продолжительность                        : 42 м.
Битрейт                                  : 1325 Кбит/сек
Ширина                                   : 704 пикселя
Высота                                   : 400 пикселей
Соотношение сторон                       : 16:9
Частота кадров                           : 23,976 кадра/сек
Цветовое пространство                    : YUV
Субдискретизация насыщенности            : 4:2:0
Битовая глубина                          : 8 бит
Тип развёртки                            : Прогрессивная
Метод сжатия                             : С потерями
Бит/(Пиксели*Кадры)                      : 0.196
Размер потока                            : 407 Мбайт (91%)
Библиотека кодирования                   : XviD 65
Аудио
Идентификатор                            : 1
Формат                                   : MPEG Audio
Версия формата                           : Version 1
Профиль формата                          : Layer 3
Режим                                    : Joint stereo
Расширение режима                        : MS Stereo
Идентификатор кодека                     : 55
Идентификатор кодека/Подсказка           : MP3
Продолжительность                        : 42 м.
Вид битрейта                             : Постоянный
Битрейт                                  : 128 Кбит/сек
Каналы                                   : 2 канала
Частота                                  : 48,0 КГц
Метод сжатия                             : С потерями
Размер потока                            : 39,3 Мбайт (9%)
Выравнивание                             : Соединение по промежуткам
Продолжительность промежутка             : 42  мс. (1,00 видеокадр)
Время предзагрузки промежутка            : 504  мс.

Скриншоты

Дополнительно

Работа со звуком: Baggio (NewStudio)


Смотреть онлайн

[trackeroc.ru].9077.torrent 
Торрент: Зарегистрирован   [ 2015-10-22 04:04 ]

Скачать торрент

51 KB

Статус: проверено
Скачан: 15 раз
Размер: 9.62 GB
 

BiOS (22-окт-15), Admin (22-окт-15)
Похожие торренты
Форум Тема Автор Размер
Зарубежные сериалы Однажды ночью / Той ночью / The Night Of (2016) HDTVRip (сезон 1, серии 1-8 из 8) NewStudio BiOS 6.55 GB
Зарубежные сериалы Однажды в сказке / Once Upon a Time / Сезон: 4 / Серии: 1-23 из 23 [2014] (Невафильм) BiOS 11.22 GB
Зарубежные сериалы Однажды в сказке / Once Upon a Time / Сезон: 5 / Серии: 1-20 из 23 [2015] (Невафильм) Admin 12.54 GB
Зарубежные сериалы Однажды в сказке / Once Upon a Time / Сезон: 1 / Серии: 1-22 из 22 [2011] (Невафильм) Angel 10.74 GB
[Профиль] [ЛС]
Показать сообщения:    
Ответить на тему

Текущее время: Сегодня 01:08

Часовой пояс: GMT + 4



Вы не можете начинать темы
Вы не можете отвечать на сообщения
Вы не можете редактировать свои сообщения
Вы не можете удалять свои сообщения
Вы не можете голосовать в опросах
Вы не можете прикреплять файлы к сообщениям
Вы можете скачивать файлы