Одни из нас / The Last of Us (2013) WEBRip [H.264/720p-LQ] [Gameplay]

Ответить на тему

Статистика раздачи [Обновить пиров]
Размер:  2.28 GB   |    Зарегистрирован:  1 год   |    Скачан:  3 раза

Полного источника не было: 9 месяцев 18 дней

 
 
 
 
Автор Сообщение

BiOS ®

Стаж: 2 года 7 месяцев

Сообщений: 1733

Откуда: Raccoon City


Пост 13-Ноя-2015 01:30

[Цитировать]

Одни из нас / The Last of Us - Жанр: Приключения, Выживание, Ужасы, Игровой фильм
Описание:
История The Last of Us повествует о событиях, произошедших спустя двадцать лет после чудовищной эпидемии, скосившей почти всех представителей человеческого рода и превращающей их в отвратительных мутантов. На руинах былой цивилизации немногочисленные, озверевшие от голода и страха люди изо дня в день борются за собственные жизни. Главным действующим персонажем станет Джоел, путешествующий по призрачным городам вместе с дочерью Элли. Им придется не раз столкнуться с порождениями жуткой болезни, но самой серьезной угрозой в мертвом мире для человека останется сам человек.
Продолжительность: 02:56:15
Качество видео: WEBRip
Перевод: Дублированный
Видео: AVC/H.264, 1280х720, ~1658 Кбит/сек
Аудио: AAC, 2 ch, 192 Кбит/сек, VBR

Mediainfo:

Код:
Общее
Полное имя                               : C:\Users\Антон\Desktop\The Last of Us - Фильм.mp4
Формат                                   : MPEG-4
Профиль формата                          : Base Media / Version 2
Идентификатор кодека                     : mp42
Размер файла                             : 2,28 Гбайт
Продолжительность                        : 2 ч. 56 м.
Режим общего битрейта                    : Переменный
Общий поток                              : 1853 Кбит/сек
Дата кодирования                         : UTC 2015-06-12 04:39:04
Дата пометки                             : UTC 2015-06-12 04:39:04
gsst                                     : 0
gstd                                     : 10575945
gssd                                     : B5570794AHM1437764562989149
gshh                                     : r7---sn-pivhx-n8ve.googlevideo.com:443
Видео
Идентификатор                            : 1
Формат                                   : AVC
Формат/Информация                        : Advanced Video Codec
Профиль формата                          : High@L3.1
Параметр CABAC формата                   : Да
Параметр ReFrames формата                : 1 кадр
Параметр GOP формата                     : M=1, N=60
Идентификатор кодека                     : avc1
Идентификатор кодека/Информация          : Advanced Video Coding
Продолжительность                        : 2 ч. 56 м.
Битрейт                                  : 1658 Кбит/сек
Максимальный битрейт                     : 6404 Кбит/сек
Ширина                                   : 1280 пикселей
Высота                                   : 720 пикселей
Соотношение сторон                       : 16:9
Режим частоты кадров                     : Постоянный
Частота кадров                           : 30,000 кадров/сек
Цветовое пространство                    : YUV
Субдискретизация насыщенности            : 4:2:0
Битовая глубина                          : 8 бит
Тип развёртки                            : Прогрессивная
Бит/(Пиксели*Кадры)                      : 0.060
Размер потока                            : 2,04 Гбайт (89%)
Дата пометки                             : UTC 2015-06-12 04:47:06
Аудио
Идентификатор                            : 2
Формат                                   : AAC
Формат/Информация                        : Advanced Audio Codec
Профиль формата                          : LC
Идентификатор кодека                     : 40
Продолжительность                        : 2 ч. 56 м.
Вид битрейта                             : Переменный
Битрейт                                  : 192 Кбит/сек
Максимальный битрейт                     : 202 Кбит/сек
Каналы                                   : 2 канала
Расположение каналов                     : Front: L R
Частота                                  : 44,1 КГц
Метод сжатия                             : С потерями
Размер потока                            : 242 Мбайт (10%)
Заголовок                                : IsoMedia File Produced by Google, 5-11-2011
Дата кодирования                         : UTC 2015-06-12 04:43:14
Дата пометки                             : UTC 2015-06-12 04:47:06
-Скриншоты:


[trackeroc.ru].9700.torrent 
 СЕРЕБРЯНАЯ РАЗДАЧА! СКАЧАННОЕ ЗАСЧИТЫВАЕТСЯ ТОЛЬКО НАПОЛОВИНУ! 
Торрент: Зарегистрирован   [ 2015-11-13 01:30 ]

Скачать торрент

12 KB

Статус: проверено
Скачан: 94 раз
Размер: 2.28 GB
 

max+100600 (13-ноя-15)

_________________
[Профиль] [ЛС]

max+100600

Стаж: 1 год 1 месяц

Сообщений: 266


Пост 13-Ноя-2015 10:22 (спустя 8 часов)

[Цитировать]

хочу на пк popcorm2 
[Профиль] [ЛС]

BiOS ®

Стаж: 2 года 7 месяцев

Сообщений: 1733

Откуда: Raccoon City


Пост 26-Ноя-2015 11:41 (спустя 13 дней)

[Цитировать]

хочу на пк popcorm2
Ну может когда нибудь и будет) А игра суперская!!!


_________________
[Профиль] [ЛС]
Показать сообщения:    
Ответить на тему

Текущее время: Сегодня 22:17

Часовой пояс: GMT + 4



Вы не можете начинать темы
Вы не можете отвечать на сообщения
Вы не можете редактировать свои сообщения
Вы не можете удалять свои сообщения
Вы не можете голосовать в опросах
Вы не можете прикреплять файлы к сообщениям
Вы можете скачивать файлы