Окрыленные [серии 1-20 из 20] [2015, Драма, Комедия, SATRip]

Ответить на тему

Статистика раздачи [Обновить пиров]
Размер:  9.77 GB   |    Зарегистрирован:  1 год 1 месяц   |    Скачан:  0 раз
DL-List: Нет

Полного источника не было: Никогда

 
 
 
 
Автор Сообщение

Матвей ®

Стаж: 1 год 2 месяца

Сообщений: 236

Откуда: Челябинск


Пост 19-Окт-2015 21:26

[Цитировать]

Окрыленные --- Производство: Россия, «Леан-М»
Жанр: Драма, Комедия
Режиссер: Анна Писаненко
Актеры: Ольга Лукьяненко, Олеся Гаевая, Юлия Маргулис, Серафима Низовская, Мария Табак, Егор Кутенков, Степан Девонин, Александр Ведменский, Андрей Хитрин, Вадим Ситников, Евгений Чупин, Александр Энагели, Ричард Бондарев, Антон Афанасьев, Марина Барсукова, Валерий Новиков, Ирина Темичева, Мария Баева, Иван Шмаков, Александра Кузенкина, Александра Булычёва, Юлия Юрченко, Маруся Климова, Лейла Абу-аль-Кишек, Рина Гришина, Игорь Скрипко, Денис Урюпин, Анастасия Стежко, Алексей Гладков, Софья Игнатова
Описание:
Сериал о команде бортпроводников и их коллег-пилотов из авиакомпании "Ю-Лайт". Члены экипажа "Юлы", как они ее сами называют, используют любую возможность хорошо оторваться, устроить розыгрыш или закатить скандал. Они - молодые, красивые и "окрылённые" своей профессией. Пассажиры видят их на борту неизменно улыбающимися, уверенными и безупречными. Но, как и обычные земные люди, бортпроводники и пилоты тоже влюбляются и разбивают сердца, ссорятся и мирятся, смеются и плачут. Скоро все узнают, что люди из авиации делают не только в небе, но и на земле.


Дата премьеры в России: 21 сентября 2015
Продолжительность: ~ 00:40:00 серия
Качество видео: SATRip
Видео: Xvid, 720x384, ~1500 Кбит/с
Аудио: AC3, 2 ch, 192 Кбит/с, CBR

Mediainfo:

Код:
Общее
Полное имя                               : D:\МОЯ\torrent\Окрыленные.2015.SATRip\01.Окрыленные.2015.avi
Формат                                   : AVI
Формат/Информация                        : Audio Video Interleave
Размер файла                             : 500 Мбайт
Продолжительность                        : 40 м.
Общий поток                              : 1739 Кбит/сек
Программа кодирования                    : VirtualDubMod 1.5.10.3 | [url=http://www.virtualdub-fr.org]www.virtualdub-fr.org[/url] || (build 2550/release)
Библиотека кодирования                   : VirtualDubMod build 2550/release
Видео
Идентификатор                            : 0
Формат                                   : MPEG-4 Visual
Профиль формата                          : Advanced Simple@L5
Параметр BVOP формата                    : 1
Параметр QPel формата                    : Нет
Параметр GMC формата                     : Без точки перехода
Параметр матрицы формата                 : Выборочная
Идентификатор кодека                     : XVID
Идентификатор кодека/Подсказка           : XviD
Продолжительность                        : 40 м.
Битрейт                                  : 1537 Кбит/сек
Ширина                                   : 720 пикселей
Высота                                   : 384 пикселя
Соотношение сторон                       : 1,85:1
Частота кадров                           : 25,000 кадров/сек
Цветовое пространство                    : YUV
Субдискретизация насыщенности            : 4:2:0
Битовая глубина                          : 8 бит
Тип развёртки                            : Прогрессивная
Метод сжатия                             : С потерями
Бит/(Пиксели*Кадры)                      : 0.222
Размер потока                            : 442 Мбайт (88%)
Библиотека кодирования                   : XviD 73
Аудио
Идентификатор                            : 1
Формат                                   : AC-3
Формат/Информация                        : Audio Coding 3
Расширение режима                        : CM (complete main)
Параметр Endianness формата              : Big
Идентификатор кодека                     : 2000
Продолжительность                        : 40 м.
Вид битрейта                             : Постоянный
Битрейт                                  : 192 Кбит/сек
Каналы                                   : 2 канала
Расположение каналов                     : Front: L R
Частота                                  : 48,0 КГц
Метод сжатия                             : С потерями
Размер потока                            : 55,2 Мбайт (11%)
Выравнивание                             : Разделение по промежуткам
Продолжительность промежутка             : 40  мс. (1,00 видеокадр)
Время предзагрузки промежутка            : 500  мс.
Скриншоты:


Смотреть онлайн

[trackeroc.ru].9007.torrent 
Торрент: Зарегистрирован   [ 2015-10-19 21:26 ]

Скачать торрент

51 KB

Статус: проверено
Скачан: 14 раз
Размер: 9.77 GB
 

Admin (19-окт-15), BiOS (20-окт-15)
Похожие торренты
Форум Тема Автор Размер
Зарубежные сериалы Люди / Humans (2016) HDTVrip (сезон 2, серии 1-6 из 8) Admin 3.26 GB
Зарубежные сериалы База Куантико / Quantico / Сезон: 2 / Серии: 1-8 из 22) Кравец Admin 3.16 GB
Зарубежные сериалы Зов крови / Потерянная / Lost Girl (2010-2014) WEB-DLRip (Сезон 1-5, серии 1-77 из 77) NewStudio [MP4|640x360] BiOS 37.01 GB
Зарубежные сериалы Бесстыжие / Shameless (US) (2016) HDTVRip (сезон 7, серии 1-10 из 12) Admin 6.35 GB
Зарубежные сериалы Вне времени / Timeless (2016) WEB-DLRip (сезон 1, серии 1-9 из 13) BiOS 3.62 GB

_________________

[Профиль] [ЛС]
Показать сообщения:    
Ответить на тему

Текущее время: Сегодня 01:57

Часовой пояс: GMT + 4



Вы не можете начинать темы
Вы не можете отвечать на сообщения
Вы не можете редактировать свои сообщения
Вы не можете удалять свои сообщения
Вы не можете голосовать в опросах
Вы не можете прикреплять файлы к сообщениям
Вы можете скачивать файлы