Ольга (2016) SATRip (сезон 1, серии 1-20 из 20) скачать торрент

Reply to topic

DL-List and Torrent activity [Update пиров]
Size:  5.81 GB   |    Registered:  3 years 1 month   |    Completed:  11 times

Seeder not seen: 1 year 2 months

 
 
 
 
 
Author Message

Admin ®

Longevity: 5 years 6 months

Posts: 8862

Location: Скачать торрент


Post 06-Sep-2016 19:25

[Quote]

Ольга «Смотри у меня!»- Производство: Россия / Good Story Media
Жанр: Комедия, драма
Режиссер: Алексей Нужный, Игорь Волошин
Актеры: Яна Троянова, Ксения Суркова, Сергей Романович, Мухаммед Абу-Ризик, Алина Алексеева, Василий Кортуков, Максим Костромыкин, Филипп Ершов, Александр Шам, Светлана Костюкова и др.
Описание:
Главная героиня воспитывает двух детей от разных браков, заботится об отце-алкоголике и пытается наладить личную жизнь. Старшая дочь Анька учится в ПТУ, думает, что она единственный адекватный член семьи и в её жизни все будет по-другому, младший сын Тимофей, чей отец вернулся к первой семье в Азербайджан, считает, что он уже мужчина, хотя ему всего лишь 11 лет, отец Ольги, бывший футболист, крепко выпивает и постоянно врет, а сестра Ленка пытается жить за счет мужчин, в основном — женатых. Вечно спасая родственников от неприятностей, Ольга живет чужой жизнью и редко думает о себе — до тех пор, пока в нее не влюбляется молодой и положительный водитель газели «Ритуал» Гриша.
Возраст: 16+ (зрителям, достигшим 16 лет)
Дата российской премьеры: 5 сентября 2016
Продолжительность: ~ 00:23:00 серия
Качество видео: SATRip
Видео: XviD, 720x400 (16:9), ~1561 kbps
Аудио: AC3, 48 kHz, 2 ch, 192 kbps

MediaInfo

Код:
Общее
Формат                                   : AVI
Формат/Информация                        : Audio Video Interleave
Размер файла                             : 273 Мбайт
Продолжительность                        : 21 м.
Общий поток                              : 1763 Кбит/сек
Программа кодирования                    : VirtualDubModRus 1.5.10.2 (build 2542/release)
Библиотека кодирования                   : VirtualDubMod build 2542/release
Видео
Идентификатор                            : 0
Формат                                   : MPEG-4 Visual
Профиль формата                          : Advanced Simple@L5
Параметр BVOP формата                    : 1
Параметр QPel формата                    : Нет
Параметр GMC формата                     : Без точки перехода
Параметр матрицы формата                 : Выборочная
Идентификатор кодека                     : XVID
Идентификатор кодека/Подсказка           : XviD
Продолжительность                        : 21 м.
Битрейт                                  : 1561 Кбит/сек
Ширина                                   : 720 пикселей
Высота                                   : 400 пикселей
Соотношение сторон                       : 16:9
Частота кадров                           : 25,000 кадров/сек
Цветовое пространство                    : YUV
Субдискретизация насыщенности            : 4:2:0
Битовая глубина                          : 8 бит
Тип развёртки                            : Прогрессивная
Метод сжатия                             : С потерями
Бит/(Пиксели*Кадры)                      : 0.217
Размер потока                            : 242 Мбайт (89%)
Библиотека кодирования                   : XviD 73
Аудио
Идентификатор                            : 1
Формат                                   : AC-3
Формат/Информация                        : Audio Coding 3
Расширение режима                        : CM (complete main)
Параметр Endianness формата              : Big
Идентификатор кодека                     : 2000
Продолжительность                        : 21 м.
Вид битрейта                             : Постоянный
Битрейт                                  : 192 Кбит/сек
Каналы                                   : 2 канала
Расположение каналов                     : Front: L R
Частота                                  : 48,0 КГц
Частота кадров                           : 31,250 кадров/сек (1536 spf)
Метод сжатия                             : С потерями
Размер потока                            : 29,8 Мбайт (11%)
Выравнивание                             : Разделение по промежуткам
Продолжительность промежутка             : 40  мс. (1,00 видеокадр)
Время предзагрузки промежутка            : 500  мс.
-Скриншоты:


Смотреть онлайн


[trackeroc.ru].14997.torrent 
Torrent: Registered   [ 2016-10-05 17:41 ]

Скачать торрент

31 KB

Status: checked
Completed: 166 times
Size: 5.81 GB
 

Similar torrent
Forum Topic Author Size
Strategy, Стратегии Ashes of the Singularity: Escalation - Hunter / Prey Expansion [v2.90/DLC] (2016) (ENG) Admin 17.54 GB
Зомби игры, Survival, Horror Project Zomboid [build 41.19] [Early Access] (2016) [ENG+RUS] Repack DD Buyan 1.33 GB
Песочницы, Sandbox Stranded Deep v0.64.00 [Early Access] (2016) (64bit) (ENG) Repack DD Admin 1.06 GB
Песочницы, Sandbox StarsOne Beta v13.11.2019 (2016) [Early Access] (RUS|ENG) Repack DD Admin 595 MB
Зомби игры, Survival, Horror 7 Days To Die Alpha 18.1 (b7) (64bit) [Early Access] (2016) [RUS|ENG] Repack DD Admin 4.28 GB

_________________
[Profile] [PM]
Display posts from previous:    
Reply to topic

The time now is: Today 04:14

All times are GMT + 4 Hours



You cannot post new topics in this forum
You cannot reply to topics in this forum
You cannot edit your posts in this forum
You cannot delete your posts in this forum
You cannot vote in polls in this forum
You cannot attach files in this forum
You can download files in this forum