Орден (2015) HDTVRip (сезон 1, серии 1-4 из 4)

Ответить на тему

Статистика раздачи [Обновить пиров]
Скачали
Размер:  2.15 GB   |    Зарегистрирован:  6 месяцев 28 дней   |    Скачан:  3 раза

Полного источника не было: 1 месяц 25 дней

 
 
 
 
Автор Сообщение

BiOS ®

Стаж: 2 года 7 месяцев

Сообщений: 1732

Откуда: Raccoon City


Пост 10-Май-2016 07:33

[Цитировать]

Орден - Телекомпания: НТВ HD
Жанр: Военный, Драма
Режиссер: Алексей Быстрицкий
Актеры: Роман Полянский, Валерий Ошомков, Александр Алёшкин, Юлия Кокрятская, Марина Митрофанова, Игорь Филиппов, Фёдор Сухов, Надежда Азоркина, Денис Попов, Сергей Лаврентьев, Сергей Штатнов, Евгений Шибалко, Никита Григорьев, Ген Сето
Описание:
1945 год. Вся страна празднует Великую Победу. Миллионы солдат-победителей возвращаются домой. Но на Востоке часть территории Китая, Маньчжурия, по-прежнему оккупирована фашистской Японией. Верная союзническому долгу Красная Армия вступает в бой с сильным и жестоким врагом. 18 августа отряд героев-штурмовиков под командованием капитана Ивана Забелина получает разрешение на осуществление дерзкой, не имеющей аналогов в мировой истории, войсковой операции. Бойцам предстоит тяжелое сражение в самом сердце врага…
Возраст: 12+ (зрителям, достигшим 12 лет)
Дата премьеры в РФ: 9 мая 2016

Продолжительность: ~ 00:42:00 серия
Качество видео: HDTVRip
Перевод: Не требуется
Субтитры: Отсутствуют
Видео: MPEG4, XviD, 720x400 (16:9), 25.000 fps, 1 573 Kbps (0.218 bit/pixel)
Аудио: AC-3, 48.0 KHz, 2 ch, 192 Kbps, CBR

Mediainfo:

Код:
Формат                                   : AVI
Формат/Информация                        : Audio Video Interleave
Размер файла                             : 550 Мбайт
Продолжительность                        : 43 м.
Общий поток                              : 1775 Кбит/сек
Программа кодирования                    : VirtualDubMod 1.5.10.3 | www.virtualdub-fr.org || (build 2550/release)
Библиотека кодирования                   : VirtualDubMod build 2550/release
Видео
Идентификатор                            : 0
Формат                                   : MPEG-4 Visual
Профиль формата                          : Advanced Simple@L5
Параметр BVOP формата                    : 1
Параметр QPel формата                    : Нет
Параметр GMC формата                     : Без точки перехода
Параметр матрицы формата                 : Выборочная
Идентификатор кодека                     : XVID
Идентификатор кодека/Подсказка           : XviD
Продолжительность                        : 43 м.
Битрейт                                  : 1573 Кбит/сек
Ширина                                   : 720 пикселей
Высота                                   : 400 пикселей
Соотношение сторон                       : 16:9
Частота кадров                           : 25,000 кадров/сек
Цветовое пространство                    : YUV
Субдискретизация насыщенности            : 4:2:0
Битовая глубина                          : 8 бит
Тип развёртки                            : Прогрессивная
Метод сжатия                             : С потерями
Бит/(Пиксели*Кадры)                      : 0.218
Размер потока                            : 487 Мбайт (89%)
Библиотека кодирования                   : XviD 73
Аудио
Идентификатор                            : 1
Формат                                   : AC-3
Формат/Информация                        : Audio Coding 3
Расширение режима                        : CM (complete main)
Параметр Endianness формата              : Big
Идентификатор кодека                     : 2000
Продолжительность                        : 43 м.
Вид битрейта                             : Постоянный
Битрейт                                  : 192 Кбит/сек
Каналы                                   : 2 канала
Расположение каналов                     : Front: L R
Частота                                  : 48,0 КГц
Битовая глубина                          : 16 бит
Метод сжатия                             : С потерями
Размер потока                            : 59,5 Мбайт (11%)
Выравнивание                             : Разделение по промежуткам
Продолжительность промежутка             : 40  мс. (1,00 видеокадр)
Время предзагрузки промежутка            : 500  мс.
-Скриншоты:


Смотреть онлайн

[trackeroc.ru].12604.torrent 
Торрент: Зарегистрирован   [ 2016-05-10 07:33 ]

Скачать торрент

12 KB

Статус: проверено
Скачан: 30 раз
Размер: 2.15 GB
 

Admin (16-май-16)
Похожие торренты
Форум Тема Автор Размер
Инди Sandbox (Linux+Mac) Big Pharma v1.07.04 (2015) (RUS|ENG) GOG _DD_ 626 MB
Инди игры Big Pharma v1.07.04 (2015) (RUS|ENG) GOG Admin 256 MB
Инди Sandbox (Linux+Mac) Kerbal Space Program 1.2.2.1622 (2015) [x86, amd64] GOG _DD_ 1.46 GB
Песочницы , Sandbox Kerbal Space Program v1.2.2.1622 (2015) [ENG] GOG Admin 1.08 GB
Зарубежные сериалы Бесстыжие / Shameless (US) (2016) HDTVRip (сезон 7, серии 1-10 из 12) Admin 6.35 GB

_________________
[Профиль] [ЛС]
Показать сообщения:    
Ответить на тему

Текущее время: Сегодня 02:04

Часовой пояс: GMT + 4



Вы не можете начинать темы
Вы не можете отвечать на сообщения
Вы не можете редактировать свои сообщения
Вы не можете удалять свои сообщения
Вы не можете голосовать в опросах
Вы не можете прикреплять файлы к сообщениям
Вы можете скачивать файлы