Орудия смерти: Город костей / The Mortal Instruments: City of Bones (2013) HDRip скачать торрент

Ответить на тему

Статистика раздачи [Обновить пиров]
Размер:  1.46 GB   |    Зарегистрирован:  2 года 3 месяца   |    Скачан:  4 раза

Полного источника не было: 9 дней

 
 
 
 
 
Автор Сообщение

BiOS ®

Стаж: 4 года

Сообщений: 2041

Откуда: Raccoon City


Пост 16-Янв-2016 16:49

[Цитировать]

Орудия смерти: Город костей / The Mortal Instruments: City of Bones - Год выпуска: 2013
Производство: Канада, Германия, Constantin Film Produktion GmbH, Sony Pictures Entertainment (SPE), Unique Features
Жанр: Боевик, Детектив, Приключения
Перевод: Дублированный [iTunes Russian]
Субтитры: Отсутствуют
Дата мировой премьеры: 12 августа 2013
Дата российской премьеры: 22 августа 2013, «Централ Партнершип»
Режиссер: Харольд Цварт
Продюсер: Дон Кармоди, Роберт Кульцер, Хартли Горенштейн
Актеры: Джейми Кэмпбелл Бауэр, Лили Коллинз, Кевин Дюранд, Джаред Харрис, Лина Хэди, Роберт Мэйллет, ККХ Паундер, Джонатан Риз Мейерс, Роберт Шихан, Кевин Зегерс
Описание фильма:Клэри Фрэй всегда считала себя самой обыкновенной девушкой, пока не выяснилось, что она — потомок древнего рода Сумеречных Охотников, тайной касты воинов-полуангелов, защищающих наш мир от демонов. Когда мама Клэри исчезает, девушка объединяется с Сумеречными охотниками, чтобы спасти ее. Так начинается ее опасное знакомство с иной реальностью, в которой существуют демоны, маги, вампиры, оборотни и другие смертоносные существа.Продолжительность: 02:10:15
Качество видео: HDRip
Видеокодек: Xvid
Битрейт видео: ~1208 Kbps
Размер кадра: 720x304
Аудиокодек: AC3 5.1
Битрейт аудио: 384 Kbps

MediaInfo:

Код:
Общее
Полное имя : D:\Orudiya.smerty.Gorod.kostej.2013.D.HDRip.1400MB.avi
Формат : AVI
Формат/Информация : Audio Video Interleave
Размер файла : 1,46 Гбайт
Продолжительность : 2 ч. 10 м.
Общий поток : 1601 Кбит/сек
Программа кодирования : VirtualDubMod 1.5.10.2 (build 2540/release)
Библиотека кодирования : VirtualDubMod build 2540/release
Видео
Идентификатор : 0
Формат : MPEG-4 Visual
Профиль формата : Advanced Simple@L5
Параметр BVOP формата : 2
Параметр QPel формата : Нет
Параметр GMC формата : Без точки перехода
Параметр матрицы формата : Выборочная
Идентификатор кодека : XVID
Идентификатор кодека/Подсказка : XviD
Продолжительность : 2 ч. 10 м.
Битрейт : 1208 Кбит/сек
Ширина : 720 пикселей
Высота : 304 пикселя
Соотношение сторон : 2,35:1
Частота кадров : 23,976 кадра/сек
Цветовое пространство : YUV
Субдискретизация насыщенности : 4:2:0
Битовая глубина : 8 бит
Тип развёртки : Прогрессивная
Метод сжатия : С потерями
Бит/(Пиксели*Кадры) : 0.230
Размер потока : 1,10 Гбайт (75%)
Библиотека кодирования : XviD 1.2.1 (UTC 2008-12-04)
Аудио
Идентификатор : 1
Формат : AC-3
Формат/Информация : Audio Coding 3
Расширение режима : CM (complete main)
Параметр Endianness формата : Big
Идентификатор кодека : 2000
Продолжительность : 2 ч. 10 м.
Вид битрейта : Постоянный
Битрейт : 384 Кбит/сек
Каналы : 6 каналов
Расположение каналов : Front: L C R, Side: L R, LFE
Частота : 48,0 КГц
Битовая глубина : 16 бит
Метод сжатия : С потерями
Размер потока : 358 Мбайт (24%)
Выравнивание : Разделение по промежуткам
Продолжительность промежутка : 42 мс. (1,00 видеокадр)
Время предзагрузки промежутка : 500 мс.
-Скриншоты:



Смотреть онлайн


[trackeroc.ru].11019.torrent 
Торрент: Зарегистрирован   [ 2016-01-16 22:12 ]

Скачать торрент

15 KB

Статус: проверено
Скачан: 21 раз
Размер: 1.46 GB
 

trackerbot (16-янв-16)

Похожие торренты
Форум Тема Автор Размер
Action, экшены City of Brass / Медный город v0.5 (2017) (ENG+RUS) Early Access Admin 2.19 GB
Фантастика ,Фэнтези Бегущий в лабиринте: Лекарство от смерти / Maze Runner: The Death Cure (2018) HDTVRip Admin 1.43 GB
Российские сериалы По ту сторону смерти (2018) WEB-DLRip (1-16 серии из 16) BiOS 8.7 GB
Детективы ,криминал Город бомба / Bomb City Admin 1.37 GB
Ужасы ,мистика ,триллеры Счастливого дня смерти / Happy Death Day (2017) BDRip Admin 1.46 GB

_________________
[Профиль] [ЛС]
Показать сообщения:    
Ответить на тему

Текущее время: Сегодня 23:25

Часовой пояс: GMT + 4



Вы не можете начинать темы
Вы не можете отвечать на сообщения
Вы не можете редактировать свои сообщения
Вы не можете удалять свои сообщения
Вы не можете голосовать в опросах
Вы не можете прикреплять файлы к сообщениям
Вы можете скачивать файлы