Ослепленный желаниями / Bedazzled (2000) BDRip

Ответить на тему

Статистика раздачи [Обновить пиров]
Размер:  1.45 GB   |    Зарегистрирован:  11 месяцев 11 дней   |    Скачан:  1 раз

Полного источника не было: 8 месяцев 29 дней

 
 
 
 
Автор Сообщение

BiOS ®

Стаж: 2 года 7 месяцев

Сообщений: 1732

Откуда: Raccoon City


Пост 23-Дек-2015 04:16

[Цитировать]

Ослепленный желаниями / Bedazzled
«The she devil is giving Elliot seven wishes but not a chance in hell.»
- Производство: США, Германия / Twentieth Century Fox Film Corporation
Жанр: Фэнтези, Мелодрама, Комедия
Режиссер: Харольд Рэмис
Актеры: Брендан Фрейзер, Элизабет Херли, Фрэнсис О’Коннор, Мириам Шор, Орландо Джонс, Пол Адельштейн, Тоби Хасс, Гэбриел Коссес, Брайан Дойл-Мюррей, Джефф Дусетте
Описание:
Дьявол еще никогда не был таким соблазнительным. В этот раз он принимает обличие распутной красотки, заставляющий любого мужчину броситься в объятия безумства. Неудачник-программист — лучший объект для вербовки.
Объект продажи — бессмертная душа. Цена — 7 желаний. Но в этой жизни бесплатным бывает лишь сыр в мышеловке, каждая медаль имеет две стороны. Выполняя любое желание продажной души, дьявол не дает насладиться результатом. В мгновение ока жизнь программиста превращается в настоящий ад.
Возраст 16+
Дата мировой премьеры: 19 октября 2000
Дата премьеры в России: 20 декабря 2000
Дата выхода DVD/Blu-ray релиза: DVD 21 июня 2005 / Blu-ray 28 мая 2013
Продолжительность: 01:33:08
Перевод: Дублированный (лицензия)
Язык субтитров: Русский (форсированные на испанскую речь)
Вид субтитров: Отдельным файлом
Видеокодек: XviD
Битрейт видео: ~1840 кбит/сек
Размер кадра: 720x304
Качество видео: BDRip
Аудиокодек: AC3 5.1
Битрейт аудио: 384 кбит/сек

Mediainfo:

Код:
General
Complete name                  : Bedazzled.2000.BDRip.avi
Format                         : AVI
Format/Info                    : Audio Video Interleave
File size                      : 1.45 GiB
Duration                       : 1h 33mn
Overall bit rate               : 2 233 Kbps
Movie name                     : Ослепленный желаниями / Bedazzled (2000) BDRip
Writing application            : VirtualDubMod 1.5.10.2 (build 2540/release)
Comment                        : 03.06.2012
Video
ID                             : 0
Format                         : MPEG-4 Visual
Format profile                 : Advanced Simple@L5
Format settings, BVOP          : 1
Format settings, QPel          : No
Format settings, GMC           : No warppoints
Format settings, Matrix        : Custom
Codec ID                       : XVID
Codec ID/Hint                  : XviD
Duration                       : 1h 33mn
Bit rate                       : 1 840 Kbps
Width                          : 720 pixels
Height                         : 304 pixels
Display aspect ratio           : 2.35:1
Frame rate                     : 23.976 fps
Color space                    : YUV
Chroma subsampling             : 4:2:0
Bit depth                      : 8 bits
Scan type                      : Progressive
Compression mode               : Lossy
Bits/(Pixel*Frame)             : 0.351
Stream size                    : 1.20 GiB (82%)
Writing library                : XviD 65
Audio
ID                             : 1
Format                         : AC-3
Format/Info                    : Audio Coding 3
Mode extension                 : CM (complete main)
Format settings, Endianness    : Big
Codec ID                       : 2000
Duration                       : 1h 33mn
Bit rate mode                  : Constant
Bit rate                       : 384 Kbps
Channel(s)                     : 6 channels
Channel positions              : Front: L C R, Side: L R, LFE
Sampling rate                  : 48.0 KHz
Bit depth                      : 16 bits
Compression mode               : Lossy
Stream size                    : 256 MiB (17%)
Alignment                      : Split accross interleaves
Interleave, duration           : 42 ms (1.00 video frame)
Interleave, preload duration   : 500 ms
-Скриншоты:


Смотреть онлайн

[trackeroc.ru].10637.torrent 
Торрент: Зарегистрирован   [ 2015-12-23 04:19 ]

Скачать торрент

15 KB

Статус: проверено
Скачан: 36 раз
Размер: 1.45 GB
 


_________________
[Профиль] [ЛС]
Показать сообщения:    
Ответить на тему

Текущее время: Сегодня 01:46

Часовой пояс: GMT + 4



Вы не можете начинать темы
Вы не можете отвечать на сообщения
Вы не можете редактировать свои сообщения
Вы не можете удалять свои сообщения
Вы не можете голосовать в опросах
Вы не можете прикреплять файлы к сообщениям
Вы можете скачивать файлы