Остров доктора Моро / The Island of Dr. Moreau (1996) [H.264] DVDRip

Ответить на тему

Статистика раздачи [Обновить пиров]
Размер:  1.99 GB   |    Зарегистрирован:  1 год   |    Скачан:  0 раз

Полного источника не было: Никогда

 
 
 
 
Автор Сообщение

BiOS ®

Стаж: 2 года 7 месяцев

Сообщений: 1730

Откуда: Raccoon City


Пост 19-Ноя-2015 12:32

[Цитировать]

Остров доктора Моро / The Island of Dr. Moreau-«Врата ада открыты...»- Русское название: Остров доктора Моро
Оригинальное название: The Island of Dr. Moreau
Производство: США, New Line Cinema
Год выпуска: 1996
Жанр: Фантастика, Ужасы, Триллер
Описание фильма:
После авиакатастрофы над южными водами Тихого океана в живых остается только работник ООН Эдвард Даглас. В бессознательном состоянии его доставляют на удаленный остров. Человека, доставившего его, зовут Монтгомери. По специальности он — нейрохирург. Вскоре Даглас узнает, что остров принадлежит ученому — доктору Моро, который здесь проводит страшные эксперименты над животными, меняя им генетические коды и пытаясь превратить их в подобие людей. Весь остров населен зверолюдьми. А чтобы держать их в подчинении, ученый ввел каждой особи специальный датчик, при желании доктора вызывающий у подопытного существа болевые ощущения…
Режиссер: Джон Франкенхаймер, Ричард Стэнли
Актеры: Марлон Брандо, Вэл Килмер, Дэвид Тьюлис, Рон Перлман, Файруза Балк, Марко Хофшнайдер, Темуэра Моррисон, Уильям Хуткинс, Даниель Ригни, Нельсон Де Ла Роза, Питер Эллиотт, Марк Дакаскос, Мигель Лопез, Нил Янг, Дэвид Хадсон, Клер Грант, Китти Сильвер, Фиона Мал, Рон Врикен, Лу Хорват, Ричард Стэнли
Продолжительность: 01:31:49
Перевод: Профессиональный многоголосый
Видеокодек: MPEG-4 AVC
Битрейт видео: ~2207 Кбит/с
Размер кадра: 708x428@1006x428
Качество видео: DVDRip
Аудио:
1. AC3, 6 ch, 448 Кбит/с - русский
2. AC3, 6 ch, 448 Кбит/с - английский

MediaInfo:

Код:
Общее
Уникальный идентификатор                 : 221175621454825700646368238967323873090 (0xA664E00F423F4B07A4F0F57B74A3CF42)
Полное имя                               : C:\Justlan\Остров доктора Моро\Ostrov Moro.mkv
Формат                                   : Matroska
Версия формата                           : Version 2
Размер файла                             : 1,99 Гбайт
Продолжительность                        : 1 ч. 31 м.
Общий поток                              : 3101 Кбит/сек
Программа кодирования                    : mkvmerge v4.4.0 ('Die Wiederkehr') сборка от Dec 25 2010 23:32:50
Библиотека кодирования                   : libebml v1.0.0 + libmatroska v1.0.0
Видео
Идентификатор                            : 1
Формат                                   : AVC
Формат/Информация                        : Advanced Video Codec
Профиль формата                          : High@L4.1
Параметр CABAC формата                   : Да
Параметр ReFrames формата                : 8 кадров
Режим смешивания                         : Header stripping
Идентификатор кодека                     : V_MPEG4/ISO/AVC
Продолжительность                        : 1 ч. 31 м.
Битрейт                                  : 2207 Кбит/сек
Ширина                                   : 708 пикселей
Высота                                   : 428 пикселей
Соотношение сторон                       : 2,35:1
Частота кадров                           : 25,000 кадров/сек
Цветовое пространство                    : YUV
Субдискретизация насыщенности            : 4:2:0
Битовая глубина                          : 8 бит
Тип развёртки                            : Прогрессивная
Бит/(Пиксели*Кадры)                      : 0.291
Размер потока                            : 1,37 Гбайт (69%)
Библиотека кодирования                   : x264 core 112 r1834 a51816a
Аудио #1
Идентификатор                            : 2
Формат                                   : AC-3
Формат/Информация                        : Audio Coding 3
Расширение режима                        : CM (complete main)
Режим смешивания                         : Header stripping
Идентификатор кодека                     : A_AC3
Продолжительность                        : 1 ч. 31 м.
Вид битрейта                             : Постоянный
Битрейт                                  : 448 Кбит/сек
Каналы                                   : 6 каналов
Расположение каналов                     : Front: L C R, Side: L R, LFE
Частота                                  : 48,0 КГц
Битовая глубина                          : 16 бит
Метод сжатия                             : С потерями
Размер потока                            : 294 Мбайт (14%)
Аудио #2
Идентификатор                            : 3
Формат                                   : AC-3
Формат/Информация                        : Audio Coding 3
Расширение режима                        : CM (complete main)
Режим смешивания                         : Header stripping
Идентификатор кодека                     : A_AC3
Продолжительность                        : 1 ч. 31 м.
Вид битрейта                             : Постоянный
Битрейт                                  : 448 Кбит/сек
Каналы                                   : 6 каналов
Расположение каналов                     : Front: L C R, Side: L R, LFE
Частота                                  : 48,0 КГц
Битовая глубина                          : 16 бит
Метод сжатия                             : С потерями
Размер потока                            : 294 Мбайт (14%)
-Скриншоты:


Смотреть онлайн

[trackeroc.ru].9917.torrent 
Торрент: Зарегистрирован   [ 2015-11-19 12:32 ]

Скачать торрент

21 KB

Статус: проверено
Скачан: 15 раз
Размер: 1.99 GB
 

Angel (20-ноя-15)
Похожие торренты
Форум Тема Автор Размер
Квесты , я ищу , Поиск предметов Hidden Object Myths of the World 9: Island of Forgotten Evil Collectors Edition / Мифы народов мира 9: Остров забытого зла [P] [RUS / ENG] (2016) HOPE 1016 MB
Квесты , я ищу , Поиск предметов Hidden Object The Cursed Island: Mask of Baragus Collectors Edition / Проклятый Остров: Маска Барагуса [P] [RUS / ENG] (2014) HOPE 1.14 GB
Логические игры, пазлы ,три в ряд Lost Island: Mahjong Adventure / Затерянный остров: Маджонг Приключение [P] [RUS / ENG] (2016) HOPE 245 MB
Зарубежные Робинзон Крузо: Очень обитаемый остров / Robinson Crusoe (2016) BDRip Admin 1.45 GB
Российские сериалы Остров (2016) SATRip (сезон 1, серии 1-20) Admin 6.89 GB

_________________


Последний раз редактировалось: BiOS (2015-11-20 10:11), всего редактировалось 1 раз
[Профиль] [ЛС]

Angel

Стаж: 1 год 3 месяца

Сообщений: 31


Пост 20-Ноя-2015 08:01 (спустя 19 часов)

[Цитировать]

Довольно интересный 
[Профиль] [ЛС]
Показать сообщения:    
Ответить на тему

Текущее время: Сегодня 13:38

Часовой пояс: GMT + 4



Вы не можете начинать темы
Вы не можете отвечать на сообщения
Вы не можете редактировать свои сообщения
Вы не можете удалять свои сообщения
Вы не можете голосовать в опросах
Вы не можете прикреплять файлы к сообщениям
Вы можете скачивать файлы