От заката до рассвета / From Dusk Till Dawn: The Series (2014) WEB-DLRip (Сезон 1, Серии 1-10 из 10) LostFilm

Ответить на тему

Статистика раздачи [Обновить пиров]
Размер:  5.35 GB   |    Зарегистрирован:  2 месяца 23 дня   |    Скачан:  1 раз

Полного источника не было: 1 месяц 8 дней

 
 
 
 
Автор Сообщение

Admin ®

Стаж: 7 месяцев 9 дней

Сообщений: 4447

Откуда: trackeroc.ru


Пост 29-Авг-2015 14:56

[Цитировать]

От заката до рассвета / From Dusk Till Dawn: The Series - Год выпуска: 2014
Страна: США
Жанр: ужасы, боевик, криминал
Перевод: Многоголосый закадровый, профессиональный - LostFilm
Дата мировой премьеры: 11 марта 2014
Режиссер: Роберт Родригес, Джо Менендес, Эдуардо Санчес
Актеры: Д.Дж. Котрона, Зейн Холц, Роберт Патрик, Мэдисон Девенпорт, Брэндон Су Ху, Эйса Гонсалес, Джейк Бьюзи, Саманта Бекер, Сэнди Гарса и др.
Описание фильма:
Сет Гекко, грабитель банков, и его не совсем психически стабильный братец Ричард находятся в розыске. Разыскивают их не только ФБР, но и техасские законники — шериф МакГроу и рейнджер Гонсалес, которые утраивают усилия после того, как после очередного ограбления, устроенного братьями Гекко, в банке остается несколько трупов. Пытаясь удрать в Мексику, Гекко сталкиваются с бывшим священником Джейкобом Фуллером и его семьей, которых берут в заложники и в их же трейлере отправляются к мексиканской границе. Заехав в небольшой стрип-клуб по дороге, они неудачно знакомятся с целой прорвой жаждущих крови вампиров и пытаются хотя бы дожить до рассвета, не говоря уже о том, чтобы истребить как можно больше чудовищ.
Продолжительность: ~00:44:00 серия
Качество видео: WEB-DLRip
Видео: XviD, AVI, 720x400 (16:9), ~1630 kb/s
Аудио: (MPEG Layer 3, 48,0 kHz, 2 ch, 192 kb/s) - многоголосый закадровый

MediaInfo:

Общее
Формат : AVI
Формат/Информация : Audio Video Interleave
Размер файла : 582 Мбайт
Продолжительность : 44 м.
Общий поток : 1835 Кбит/сек
Программа кодирования : Nandub v1.0rc2
Библиотека кодирования : Nandub build 1853/release
Видео
Идентификатор : 0
Формат : MPEG-4 Visual
Профиль формата : Simple@L3
Параметр BVOP формата : Нет
Параметр QPel формата : Нет
Параметр GMC формата : Без точки перехода
Параметр матрицы формата : Default (H.263)
Идентификатор кодека : XVID
Идентификатор кодека/Подсказка : XviD
Продолжительность : 44 м.
Битрейт : 1630 Кбит/сек
Ширина : 720 пикселей
Высота : 400 пикселей
Соотношение сторон : 16:9
Частота кадров : 23,976 кадра/сек
Цветовое пространство : YUV
Субдискретизация насыщенности : 4:2:0
Битовая глубина : 8 бит
Тип развёртки : Прогрессивная
Метод сжатия : С потерями
Бит/(Пиксели*Кадры) : 0.236
Размер потока : 517 Мбайт (89%)
Библиотека кодирования : XviD 1.2.1 (UTC 2008-12-04)
Аудио
Идентификатор : 1
Формат : MPEG Audio
Версия формата : Version 1
Профиль формата : Layer 3
Режим : Joint stereo
Расширение режима : MS Stereo
Идентификатор кодека : 55
Идентификатор кодека/Подсказка : MP3
Продолжительность : 44 м.
Вид битрейта : Постоянный
Битрейт : 192 Кбит/сек
Каналы : 2 канала
Частота : 48,0 КГц
Метод сжатия : С потерями
Размер потока : 60,9 Мбайт (10%)
Выравнивание : Соединение по промежуткам
Продолжительность промежутка : 24 мс. (0,58 видеокадр)
Время предзагрузки промежутка : 480 мс.

Список серий:


01. Pilot / Пилот
02. Blood Runs Thick / Кровь не вода
03. Mistress / Госпожа
04. Let's Get Ramblin' / Давайте путешествовать
05. Self-Contained / Самодостаточные
06. Place of Dead Roads / Кладбище всех дорог
07. Pandemonium / Пандемониум
08. La Conquista/ Конкиста
09. Boxman / Взломщик
10. The Take / Доля
-Скриншоты:


Смотреть онлайн

[trackeroc.ru].7833.torrent 
Торрент: Зарегистрирован   [ 2016-09-11 09:04 ]

Скачать торрент

28 KB

Статус: проверено
Скачан: 12 раз
Размер: 5.35 GB
 

B13VIRUS (12-сен-15), BiOS (11-сен-16)
Похожие торренты
Форум Тема Автор Размер
Зарубежные сериалы От заката до рассвета / From Dusk Till Dawn (2016) (сезон 3, серии 1-10 из 10) NewStudio Admin 5.38 GB
Зарубежные сериалы От заката до рассвета / From Dusk Till Dawn: The Series (2016) WEB-DLRip (сезон 3, серии 1-6 из 10) LostFilm BiOS 3.23 GB
Зарубежные сериалы От заката до рассвета / From Dusk Till Dawn: The Series (2015) WEB-DLRip (сезон 2, серии 1-10 из 10) LostFilm BiOS 4.5 GB

_________________


Последний раз редактировалось: Admin (2016-09-09 10:27), всего редактировалось 1 раз
[Профиль] [ЛС]
Показать сообщения:    
Ответить на тему

Текущее время: Сегодня 14:02

Часовой пояс: GMT + 4



Вы не можете начинать темы
Вы не можете отвечать на сообщения
Вы не можете редактировать свои сообщения
Вы не можете удалять свои сообщения
Вы не можете голосовать в опросах
Вы не можете прикреплять файлы к сообщениям
Вы можете скачивать файлы