Отпуск по ранению (Серии 1—4 из 4) (Кирилл Капица) [2015, боевик, SATRip]

Ответить на тему

Статистика раздачи [Обновить пиров]
Размер:  2.36 GB   |    Зарегистрирован:  1 год 1 месяц   |    Скачан:  5 раз
Сидов:  421  [  0 KB/s  ]   Личеров:  124  [  0 KB/s  ]   Подробная статистика пиров
   
 
Автор Сообщение

Матвей ®

Стаж: 1 год 2 месяца

Сообщений: 236

Откуда: Челябинск


Пост 12-Окт-2015 20:56

[Цитировать]

--Отпуск по ранению--
  • Год выпуска: 2015
  • Страна: Россия, Украина / «StarMedia»
  • Жанр: боевик
  • Продолжительность: 4 х ~00:44:00
  • Перевод: Не требуется-
  • Режиссёр: Кирилл Капица-
  • В ролях: Игорь Лифанов, Ирина Сотикова, Алексей Федотов, Руслан Нанава, Александра Никифорова, Сергей Мурзин, Игорь Ключников...-
  • Командир спецподразделения ГРУ майор Артем Говоров во время операции по освобождению заложников - пленных иностранных журналистов, контужен и ранен в ногу. После госпиталя он уезжает в отпуск на десять дней в свой родной городок, где из родственников после смерти матери, у него остался только двоюродный брат. За эти десять дней он спасет от бандитов девушку, поможет местной полиции обезвредить опасную банду отморозков и найдёт свою любовь.-
  • Премьера в России: 11 октября 2015 (НТВ)--
  • --
  • Качество видео: SATRip
  • Формат видео: AVI
  • Видео кодек: XviD
  • Аудио кодек: MP3
  • Видео: 720x400 (1.80:1), 25.000 fps, XviD MPEG-4, ~1810 kbps avg, 0.251 bit/pixel
  • Аудио: 48.0 kHz, MPEG Audio Layer 3, 2 ch, ~128.00 kbps avg
  • Субтитры: нет
--

Внимание ! Раздача ведётся путём добавления новых серий !!!

Внимание! Раздача ведётся путём добавления новых серий; при каждом добавлении создаётся новый торрент. Чтобы начать докачку новой серии, пользователям необходимо сделать следующее:
(1) остановить скачивание,раздачу,
(2) удалить старый торрент у себя из клиента (старые серии удалять не надо),
(3) скачать новый торрент и запустить его у себя в клиенте вместо старого, при этом указать клиенту путь в старую папку куда и должно происходить скачивание новых серий.
Ваш клиент при этом должен произвести хеширование (проверку) старой папки (если не производит сами - помогите ему сделать это), и будет докачивать только те серии которых у вас ещё нет. Старые серии при этом не удаляются, а продолжают раздаваться!
Eсли вы уже удалили старые серии, то предотвратить повторную закачку старых серий можно, отжав галочку в соответствующих местах при запуске нового торрента. По возможности, желательно не удалять старые серии как можно дольше чтобы релизёр не столько продолжал раздавать старые серии, а смог сконцентрироваться на новых.

Media Info

General
Complete name : W:\O.S.A.\Торренты\Завершенные торренты\Отпуск по ранению\1 серия.avi
Format : AVI
Format/Info : Audio Video Interleave
File size : 612 MiB
Duration : 43mn 58s
Overall bit rate : 1 944 Kbps
Writing application : VirtualDubMod 1.5.10.3 (build 2550/release)
Writing library : VirtualDubMod build 2550/release
Video
ID : 0
Format : MPEG-4 Visual
Format profile : Advanced Simple@L5
Format settings, BVOP : 2
Format settings, QPel : No
Format settings, GMC : No warppoints
Format settings, Matrix : Default (MPEG)
Codec ID : XVID
Codec ID/Hint : XviD
Duration : 43mn 58s
Bit rate : 1 807 Kbps
Width : 720 pixels
Height : 400 pixels
Display aspect ratio : 16:9
Frame rate : 25.000 fps
Color space : YUV
Chroma subsampling : 4:2:0
Bit depth : 8 bits
Scan type : Progressive
Compression mode : Lossy
Bits/(Pixel*Frame) : 0.251
Stream size : 568 MiB (93%)
Writing library : XviD 73
Audio
ID : 1
Format : MPEG Audio
Format version : Version 1
Format profile : Layer 3
Mode : Joint stereo
Mode extension : MS Stereo
Codec ID : 55
Codec ID/Hint : MP3
Duration : 43mn 58s
Bit rate mode : Constant
Bit rate : 128 Kbps
Channel(s) : 2 channels
Sampling rate : 48.0 KHz
Compression mode : Lossy
Stream size : 40.3 MiB (7%)
Alignment : Split accross interleaves
Interleave, duration : 40 ms (1.00 video frame)
Interleave, preload duration : 500 ms

Скриншоты

-- --


Смотреть онлайн

[trackeroc.ru].8637.torrent 
Торрент: Зарегистрирован   [ 2015-10-12 20:56 ]

Скачать торрент

13 KB

Статус: проверено
Скачан: 24 раз
Размер: 2.36 GB
 

Admin (12-окт-15)
Похожие торренты
Форум Тема Автор Размер
Российские сериалы Вечный отпуск (2016) SATRip (сезон 1, серии 1-24) Admin 7.96 GB

_________________

[Профиль] [ЛС]
Показать сообщения:    
Ответить на тему

Текущее время: Сегодня 23:49

Часовой пояс: GMT + 4



Вы не можете начинать темы
Вы не можете отвечать на сообщения
Вы не можете редактировать свои сообщения
Вы не можете удалять свои сообщения
Вы не можете голосовать в опросах
Вы не можете прикреплять файлы к сообщениям
Вы можете скачивать файлы