Парад Победы, посвященный 71-ой годовщине Победы в ВОВ 1941-1945г., Москва (2016.05.09) HDTV [H.264/1080i]

Ответить на тему

Статистика раздачи [Обновить пиров]
Нет
 
 
 
 
Автор Сообщение

BiOS ®

Стаж: 2 года 7 месяцев

Сообщений: 1740

Откуда: Raccoon City


Пост 10-Май-2016 06:56

[Цитировать]

Парад Победы, посвященный 71-ой годовщине Победы в ВОВ 1941-1945г., Москва - Телекомпания: Первый канал HD
Жанр: Документальный, военный парад
Описание:
Военный парад, посвященный 71-й годовщине Победы в Великой Отечественной войне.
Каждый год 9 мая во многих странах мира отмечают День Победы над немецко-фашистскими захватчиками. Но нигде этот праздник не празднуют с таким размахом, как в России. В 2016 году отмечается 71 год со Дня Победы.
Релиз от: olegka7373
Продолжительность: 01:00:17
Качество видео: HDTV
Субтитры: Отсутствуют
Видео: AVC, 1920x1080 (16:9), 25.000 fps, 8 878 Kbps (0.171 bit/pixel)
Аудио: AC-3, 48.0 KHz, 6 ch, 384 Kbps, CBR
Аудио: MP2, 48.0 KHz, 2 ch, 192 Kbps, CBR

Mediainfo:

Код:
Формат                                   : MPEG-TS
Размер файла                             : 4,19 Гбайт
Продолжительность                        : 1 ч. 0 м.
Режим общего битрейта                    : Переменный
Общий поток                              : 9952 Кбит/сек
Видео
Идентификатор                            : 604 (0x25C)
Идентификатор меню                       : 80 (0x50)
Формат                                   : AVC
Формат/Информация                        : Advanced Video Codec
Профиль формата                          : High@L4
Параметр CABAC формата                   : Да
Параметр ReFrames формата                : 3 кадра
Идентификатор кодека                     : 27
Продолжительность                        : 1 ч. 0 м.
Битрейт                                  : 8878 Кбит/сек
Ширина                                   : 1920 пикселей
Высота                                   : 1080 пикселей
Соотношение сторон                       : 16:9
Частота кадров                           : 25,000 кадров/сек
Стандарт вещания                         : Component
Цветовое пространство                    : YUV
Субдискретизация насыщенности            : 4:2:0
Битовая глубина                          : 8 бит
Тип развёртки                            : Чересстрочная
Порядок развёртки                        : Верхнее поле первое
Бит/(Пиксели*Кадры)                      : 0.171
Размер потока                            : 3,74 Гбайт (89%)
Цветовой диапазон                        : Limited
Основные цвета                           : BT.709
Характеристики трансфера                 : BT.709
Коэффициенты матрицы                     : BT.709
Аудио #1
Идентификатор                            : 607 (0x25F)
Идентификатор меню                       : 80 (0x50)
Формат                                   : AC-3
Формат/Информация                        : Audio Coding 3
Расширение режима                        : CM (complete main)
Параметр Endianness формата              : Big
Идентификатор кодека                     : 6
Продолжительность                        : 1 ч. 0 м.
Вид битрейта                             : Постоянный
Битрейт                                  : 384 Кбит/сек
Каналы                                   : 6 каналов
Расположение каналов                     : Front: L C R, Side: L R, LFE
Частота                                  : 48,0 КГц
Битовая глубина                          : 16 бит
Метод сжатия                             : С потерями
Задержка видео                           : -80 мс.
Размер потока                            : 166 Мбайт (4%)
Язык                                     : Russian
Аудио #2
Идентификатор                            : 608 (0x260)
Идентификатор меню                       : 80 (0x50)
Формат                                   : MPEG Audio
Версия формата                           : Version 1
Профиль формата                          : Layer 2
Идентификатор кодека                     : 3
Продолжительность                        : 1 ч. 0 м.
Вид битрейта                             : Постоянный
Битрейт                                  : 192 Кбит/сек
Каналы                                   : 2 канала
Частота                                  : 48,0 КГц
Метод сжатия                             : С потерями
Задержка видео                           : -80 мс.
Размер потока                            : 82,8 Мбайт (2%)
Язык                                     : Russian
-Скриншоты:
Похожие торренты
Форум Тема Автор Размер
Документальные Трейлеры Праздничный салют, посвященный Дню Победы. Москва (2016.05.09) HDTV [H.264/1080i-LQ] BiOS 522 MB
Документальные Трейлеры Парад Победы, посвященный 71-ой годовщине Победы в ВОВ 1941-1945г., Грозный (2016.05.09) SATRip BiOS 336 MB
Документальные Трейлеры Парад Победы, посвященный 71-ой годовщине Победы в ВОВ 1941-1945г., Калининград (2016.05.09) WEBRip BiOS 811 MB
Документальные Трейлеры Парад Победы, посвященный 71-ой годовщине Победы в ВОВ 1941-1945г., Донецк (2016.05.09) WEBRip BiOS 820 MB

_________________
[Профиль] [ЛС]
Показать сообщения:    
Ответить на тему

Текущее время: Сегодня 09:54

Часовой пояс: GMT + 4



Вы не можете начинать темы
Вы не можете отвечать на сообщения
Вы не можете редактировать свои сообщения
Вы не можете удалять свои сообщения
Вы не можете голосовать в опросах
Вы не можете прикреплять файлы к сообщениям
Вы не можете скачивать файлы