Партизан / Partisan [2015, Австралия, триллер, драма, WEB-DLRip]

Ответить на тему

Статистика раздачи [Обновить пиров]
Размер:  1.48 GB   |    Зарегистрирован:  1 год 1 месяц   |    Скачан:  0 раз

Полного источника не было: Никогда

 
 
 
 
Автор Сообщение

Admin ®

Стаж: 7 месяцев 8 дней

Сообщений: 4447

Откуда: trackeroc.ru


Пост 20-Окт-2015 15:52

[Цитировать]

Партизан / Partisan Страна: Австралия
Год выпуска: 2015
Жанр: триллер, драма
Продолжительность: 01:38:03
Перевод: Одноголосый закадровый [Райм Закиров]
Режиссер: Эриель Клейман / Ariel Kleiman
В ролях: Венсан Кассель, Найджел Барбер, Джереми Чабриел, Флоренсе Мизарра, Тимоти Стайлз, Сапидах Кайн, Сосина Вогаху, Наталья Горбачева, Каталина Хегибас, Ченги Бирлони
Описание: Речь в фильме пойдет о деспотичном отце семейства, который растит своих детей в изоляции от окружающего мира и прививает им
человеконенавистническое восприятие общества. Повествование будет вестись от имени 11-летнего мальчика, осуждающего радикальные взгляды на жизнь своего отца.
http://multi-up.com/1071686
Качество: WEB-DLRip
Формат: AVI
Видео: MPEG-4 Visual, 1765 Кбит/сек, 720 x 304 (2,40:1), 23.976 fps
Аудио: AC-3, 384 Кбит/сек, 6 каналов, 48,0 КГц

MI

Формат : AVI
Формат/Информация : Audio Video Interleave
Размер файла : 1,48 Гбайт
Продолжительность : 1 ч. 38 м.
Общий поток : 2160 Кбит/сек
Название фильма : Partisan (2015) WEB-DLRip
Программа кодирования : Lavf57.3.100
Библиотека кодирования : VirtualDub build 32706/release
Видео
Идентификатор : 0
Формат : MPEG-4 Visual
Профиль формата : Advanced Simple@L5
Параметр BVOP формата : 2
Параметр QPel формата : Нет
Параметр GMC формата : Без точки перехода
Параметр матрицы формата : Default (MPEG)
Идентификатор кодека : XVID
Идентификатор кодека/Подсказка : XviD
Продолжительность : 1 ч. 38 м.
Битрейт : 1765 Кбит/сек
Ширина : 720 пикселей
Высота : 304 пикселя
Соотношение сторон : 2,40:1
Частота кадров : 23,976 кадра/сек
Цветовое пространство : YUV
Субдискретизация насыщенности : 4:2:0
Битовая глубина : 8 бит
Тип развёртки : Прогрессивная
Метод сжатия : С потерями
Бит/(Пиксели*Кадры) : 0.336
Размер потока : 1,21 Гбайт (82%)
Библиотека кодирования : XviD 67
Аудио
Идентификатор : 1
Формат : AC-3
Формат/Информация : Audio Coding 3
Расширение режима : CM (complete main)
Параметр Endianness формата : Big
Идентификатор кодека : 2000
Продолжительность : 1 ч. 38 м.
Вид битрейта : Постоянный
Битрейт : 384 Кбит/сек
Каналы : 6 каналов
Расположение каналов : Front: L C R, Side: L R, LFE
Частота : 48,0 КГц
Битовая глубина : 16 бит
Метод сжатия : С потерями
Размер потока : 269 Мбайт (18%)
Выравнивание : Соединение по промежуткам
Продолжительность промежутка : 32 мс. (0,77 видеокадр)
Время предзагрузки промежутка : 512 мс.

Скриншоты



Смотреть онлайн

[trackeroc.ru].9032.torrent 
Торрент: Зарегистрирован   [ 2015-10-20 15:52 ]

Скачать торрент

15 KB

Статус: проверено
Скачан: 14 раз
Размер: 1.48 GB
 


_________________
[Профиль] [ЛС]
Показать сообщения:    
Ответить на тему

Текущее время: Сегодня 01:46

Часовой пояс: GMT + 4



Вы не можете начинать темы
Вы не можете отвечать на сообщения
Вы не можете редактировать свои сообщения
Вы не можете удалять свои сообщения
Вы не можете голосовать в опросах
Вы не можете прикреплять файлы к сообщениям
Вы можете скачивать файлы