Переполох в джунглях / Jungle Shuffle (2014) BDRip BDRip [H.264/720p-LQ] [Line]

Ответить на тему

Статистика раздачи [Обновить пиров]
Размер:  2.62 GB   |    Зарегистрирован:  1 год 1 месяц   |    Скачан:  2 раза

Полного источника не было: 10 месяцев 3 дня

 
 
 
 
Автор Сообщение

BiOS ®

Стаж: 2 года 7 месяцев

Сообщений: 1736

Откуда: Raccoon City


Пост 25-Окт-2015 01:32

[Цитировать]

Переполох в джунглях / Jungle Shuffle - Производство: Корея Южная, Мексика | WonderWorld Studios, Avikoo Studios, Animation Picture Company
Жанр: мультфильм, приключения
Режиссер: Тадонг Пак, Маурисио Де ла Орта
Описание:
Ману — коати, обаятельный молодой зверек редкого вида енотов. Он не любит сидеть без дела и мечтает помогать всем зверям в джунглях. Однако, из-за своей неуемной энергии он вечно попадает в разные нелепые ситуации. Однажды он случайно ломает огромную статую, которую возводило все племя, за что король изгоняет его, несмотря на уговоры своей дочери Саши. Но когда в племя приходит беда и браконьеры похищают Сашу, вокруг не находится героя, готового отправиться вслед за людьми. Только один Ману готов рискнуть всем и спасти дочь короля.
Дата премьеры в России: 1 октября 2015, «Ракета Релизинг»
Продолжительность: 01:21:34
Качество видео: BDRip
Перевод: Дублированный (Line)
Видео: AVC/H.264, 1280x720 (16:9), 23.976 fps, 3734 Kbps (0.169 bit/pixel)
Аудио #1: MP3, 48.0 KHz, 2 ch, 320 Kbps, CBR (Русский)
Аудио #2: AC-3, 48.0 KHz, 6 ch, 448 Kbps, CBR (Английский)
Семпл: Скачать

Mediainfo

Код:
Complete name                            : \Jungle.Shuffle.(2014).BDRip.720p.mkv
Format                                   : Matroska
Format version                           : Version 2
File size                                : 2.62 GiB
Duration                                 : 1h 21mn
Overall bit rate                         : 4 594 Kbps
Movie name                               : Jungle Shuffle 2014
Encoded date                             : UTC 2015-10-24 13:49:05
Writing application                      : mkvmerge v5.8.0 ('No Sleep / Pillow') built on Sep  2 2012 15:37:04
Writing library                          : libebml v1.2.3 + libmatroska v1.3.0
Video
ID                                       : 1
Format                                   : AVC
Format/Info                              : Advanced Video Codec
Format profile                           : High@L4.1
Format settings, CABAC                   : Yes
Format settings, ReFrames                : 5 frames
Codec ID                                 : V_MPEG4/ISO/AVC
Duration                                 : 1h 21mn
Bit rate                                 : 3 734 Kbps
Width                                    : 1 280 pixels
Height                                   : 720 pixels
Display aspect ratio                     : 16:9
Frame rate mode                          : Constant
Frame rate                               : 23.976 fps
Color space                              : YUV
Chroma subsampling                       : 4:2:0
Bit depth                                : 8 bits
Scan type                                : Progressive
Bits/(Pixel*Frame)                       : 0.169
Stream size                              : 2.13 GiB (81%)
Writing library                          : x264 core 142 r2491 24e4fed
Encoding settings                        : cabac=1 / ref=5 / deblock=1:-1:-1 / analyse=0x3:0x133 / me=umh / subme=7 / psy=1 / psy_rd=1.00:0.15 / mixed_ref=1 / me_range=16 / chroma_me=1 / trellis=1 / 8x8dct=1 / cqm=0 / deadzone=21,11 / fast_pskip=0 / chroma_qp_offset=-3 / threads=12 / lookahead_threads=2 / sliced_threads=0 / nr=0 / decimate=1 / interlaced=0 / bluray_compat=0 / constrained_intra=0 / bframes=3 / b_pyramid=2 / b_adapt=1 / b_bias=0 / direct=3 / weightb=1 / open_gop=0 / weightp=2 / keyint=240 / keyint_min=23 / scenecut=40 / intra_refresh=0 / rc_lookahead=50 / rc=crf / mbtree=1 / crf=20.0 / qcomp=0.60 / qpmin=10 / qpmax=51 / qpstep=4 / ip_ratio=1.40 / aq=1:1.00
Language                                 : English
Default                                  : Yes
Forced                                   : No
Audio #1
ID                                       : 2
Format                                   : MPEG Audio
Format version                           : Version 1
Format profile                           : Layer 3
Mode                                     : Joint stereo
Codec ID                                 : A_MPEG/L3
Codec ID/Hint                            : MP3
Duration                                 : 1h 21mn
Bit rate mode                            : Constant
Bit rate                                 : 320 Kbps
Channel(s)                               : 2 channels
Sampling rate                            : 48.0 KHz
Compression mode                         : Lossy
Stream size                              : 187 MiB (7%)
Title                                    : (LINE)
Language                                 : Russian
Default                                  : Yes
Forced                                   : No
Audio #2
ID                                       : 3
Format                                   : AC-3
Format/Info                              : Audio Coding 3
Mode extension                           : CM (complete main)
Format settings, Endianness              : Big
Codec ID                                 : A_AC3
Duration                                 : 1h 21mn
Bit rate mode                            : Constant
Bit rate                                 : 448 Kbps
Channel(s)                               : 6 channels
Channel positions                        : Front: L C R, Side: L R, LFE
Sampling rate                            : 48.0 KHz
Bit depth                                : 16 bits
Compression mode                         : Lossy
Stream size                              : 261 MiB (10%)
Language                                 : English
Default                                  : No
Forced                                   : No
Menu
00:00:00.000                             : en:00:00:00.000
00:09:14.137                             : en:00:09:14.137
00:15:30.513                             : en:00:15:30.513
00:23:18.439                             : en:00:23:18.439
00:30:50.974                             : en:00:30:50.974
00:38:53.414                             : en:00:38:53.414
00:43:34.946                             : en:00:43:34.946
00:50:38.661                             : en:00:50:38.661
00:56:19.293                             : en:00:56:19.293
01:02:04.471                             : en:01:02:04.471
01:11:00.089                             : en:01:11:00.089
01:17:07.957                             : en:01:17:07.957
-Скриншоты:


Смотреть онлайн

[trackeroc.ru].9208.torrent 
Торрент: Зарегистрирован   [ 2015-10-25 01:33 ]

Скачать торрент

14 KB

Статус: проверено
Скачан: 26 раз
Размер: 2.62 GB
 

Admin (25-окт-15)
Похожие торренты
Форум Тема Автор Размер
Логические игры, пазлы ,три в ряд Claws and Feathers / Птичий переполох (2014) (Alawar) (RUS) [P] Admin 168 MB

_________________
[Профиль] [ЛС]
Показать сообщения:    
Ответить на тему

Текущее время: Сегодня 05:49

Часовой пояс: GMT + 4



Вы не можете начинать темы
Вы не можете отвечать на сообщения
Вы не можете редактировать свои сообщения
Вы не можете удалять свои сообщения
Вы не можете голосовать в опросах
Вы не можете прикреплять файлы к сообщениям
Вы можете скачивать файлы