Пиковая дама: Черный обряд (2015) WEB-DL [1080p] ATV

Ответить на тему

Статистика раздачи [Обновить пиров]
Размер:  3.63 GB   |    Зарегистрирован:  1 год 1 месяц   |    Скачан:  3 раза

Полного источника не было: 5 месяцев 3 дня

 
 
 
 
Автор Сообщение

BiOS ®

Стаж: 2 года 7 месяцев

Сообщений: 1738

Откуда: Raccoon City


Пост 19-Окт-2015 08:26

[Цитировать]

Пиковая дама: Черный обряд
«Пиковая дама, приди»
- Год выпуска: 2015
Производство: Россия
Жанр: Ужасы
Продолжительность: 01:32:50
Перевод: Не требуется
Режиссер: Святослав Подгаевский
Актеры: Алина Бабак, Игорь Хрипунов, Владимир Селезнев, Валерия Дмитриева, Сергей Походаев, Евгения Лоза, Валентин Садики, Мария Фомина, Максим Стоянов, Наталья Домерецкая
Премьера (РФ): 10 сентября 2015
Описание: С древних времен считается, что любое зеркало может стать порталом в мир мертвых. Одним из старейших мистических ритуалов с зеркалом является обряд вызова Пиковой Дамы. Четверо подростков в шутку решают призвать ее, но даже не подозревают, на какие ужасы они обрекли себя и своих близких. Теперь мстительный призрак не остановится, пока не получит их души.-Качество: WEB-DL 1080p
Контейнер: M4V
Видео: H.264, 1920x1080, 16:9, 5 049 Kbps, 24.000 fps
Аудио 1: Русский/Оригинальная дорожка , AAC / 2.0 / 157 Kbps / 48.0 KHz
Аудио 2: Русский/Оригинальная дорожка , AC-3 / 5.1 / 384 Kbps / 48.0 KHz
-

iTunes Meta Tags

Код:
Sort Name: Пиковая дама: Черный обряд
XID: Apple:vendor_id:2015-880665
contentID: 1034515065
Copyright: © 2015 Volga
Screenwriters: Святослав Подгаевский
Producers: Георгий Малков, Владимир Поляков, Даниил Махорт
Director: Святослав Подгаевский
Cast: Алина Бабак, Игорь Хрипунов, Владимир Селезнев, Валерия Дмитриева, Сергей Походаев, Евгения Лоза, Валентин Садики, Мария Фомина, Максим Стоянов, Наталья Домерецкая
Studio: Enjoy Movies Ultrafilm
Long Description: С древних времен считается, что любое зеркало может стать порталом в мир мертвых. Одним из старейших мистических ритуалов с зеркалом является обряд вызова Пиковой Дамы. Четверо подростков в шутку решают призвать ее, но даже не подозревают, на какие ужасы они обрекли себя и своих близких. Теперь мстительный призрак не остановится, пока не получит их души.
Description: С древних времен считается, что любое зеркало может стать порталом в мир мертвых. Одним из старейших мистических ритуалов с зеркалом является обряд вызова Пиковой Дамы. Четверо подростков в шутку решают призвать ее, но даже не подозревают, на какие ужасы они обрекли себя и своих близких. Теперь мстительный призрак не остановится, пока не получит их души.
Release Date: 2015-01-01T08:00:00Z
Artist: Святослав Подгаевский
Name: Пиковая дама: Черный обряд

MediaInfo

Код:
General
Complete name : /Users/alex/HandBrake/Pikovaya.Dama.WEB.DL.1080p.m4v
Format : MPEG-4
Codec ID : M4V
File size : 3.63 GiB
Duration : 1h 32mn
Overall bit rate mode : Variable
Overall bit rate : 5 595 Kbps
Movie name : Пиковая дама: Черный обряд
Performer : Святослав Подгаевский
Director : Святослав Подгаевский
Actor : Алина Бабак / Игорь Хрипунов / Владимир Селезнев / Валерия Дмитриева / Сергей Походаев / Евгения Лоза / Валентин Садики / Мария Фомина / Максим Стоянов / Наталья Домерецкая
Screenplay by : Святослав Подгаевский
Producer : Георгий Малков / Владимир Поляков / Даниил Махорт
Production studio : Enjoy Movies Ultrafilm
ContentType : Short Film
Description : С древних времен считается, что любое зеркало может стать порталом в мир мертвых. Одним из старейших мистических ритуалов с зеркалом является обряд вызова Пиковой Дамы. Четверо подростков в шутку решают призвать ее, но даже не подозревают, на какие ужасы они обрекли себя и своих близких. Теперь мстительный призрак не остановится, пока не получит их души.
Recorded date : UTC 2015-01-01 08:00:00
Encoded date : UTC 2015-10-17 09:24:21
Tagged date : UTC 2015-10-17 09:25:45
Copyright : © 2015 Volga
Cover : Yes
Rating : None
Title/Sort : Пиковая дама: Черный обряд
LongDescription : С древних времен считается, что любое зеркало может стать порталом в мир мертвых. Одним из старейших мистических ритуалов с зеркалом является обряд вызова Пиковой Дамы. Четверо подростков в шутку решают призвать ее, но даже не подозревают, на какие ужасы они обрекли себя и своих близких. Теперь мстительный призрак не остановится, пока не получит их души.
AppleStoreCatalogID : 1034515065
Vendor : Apple:vendor_id:2015-880665
Video #1
ID : 1
Format : AVC
Format/Info : Advanced Video Codec
Format profile : High@L4
Format settings, CABAC : Yes
Format settings, ReFrames : 4 frames
Codec ID : avc1
Codec ID/Info : Advanced Video Coding
Duration : 1h 32mn
Bit rate : 5 049 Kbps
Width : 1 920 pixels
Height : 1 080 pixels
Display aspect ratio : 16:9
Frame rate mode : Constant
Frame rate : 24.000 fps
Color space : YUV
Chroma subsampling : 4:2:0
Bit depth : 8 bits
Scan type : Progressive
Bits/(Pixel*Frame) : 0.101
Stream size : 3.27 GiB (90%)
Title : Main Program
Language : Russian
Encoded date : UTC 2015-10-17 09:24:21
Tagged date : UTC 2015-10-17 09:24:38
Color range : Limited
Color primaries : BT.709
Transfer characteristics : BT.709
Matrix coefficients : BT.709
Video #2
ID : 5
Format : JPEG
Codec ID : jpeg
Duration : 1h 32mn
Bit rate mode : Variable
Bit rate : 866 bps
Width : 640 pixels
Height : 360 pixels
Display aspect ratio : 16:9
Frame rate mode : Variable
Frame rate : 0.003 fps
Minimum frame rate : 0.003 fps
Maximum frame rate : 0.004 fps
Color space : YUV
Chroma subsampling : 4:2:0
Bit depth : 8 bits
Compression mode : Lossy
Bits/(Pixel*Frame) : 1.253
Stream size : 599 KiB (0%)
Title : Chapter Images
Language : Russian
Encoded date : UTC 2015-10-17 09:24:46
Tagged date : UTC 2015-10-17 09:24:47
Audio #1
ID : 2
Format : AAC
Format/Info : Advanced Audio Codec
Format profile : LC
Codec ID : 40
Duration : 1h 32mn
Bit rate mode : Variable
Bit rate : 157 Kbps
Maximum bit rate : 227 Kbps
Channel(s) : 2 channels
Channel positions : Front: L R
Sampling rate : 48.0 KHz
Compression mode : Lossy
Stream size : 104 MiB (3%)
Title : Russian Stereo
Language : Russian
Encoded date : UTC 2015-10-17 09:24:21
Tagged date : UTC 2015-10-17 09:24:41
Audio #2
ID : 3
Format : AC-3
Format/Info : Audio Coding 3
Mode extension : CM (complete main)
Format settings, Endianness : Big
Codec ID : ac-3
Duration : 1h 32mn
Bit rate mode : Constant
Bit rate : 384 Kbps
Channel(s) : 6 channels
Channel positions : Front: L C R, Side: L R, LFE
Sampling rate : 48.0 KHz
Bit depth : 16 bits
Compression mode : Lossy
Stream size : 255 MiB (7%)
Title : Russian DD 5.1
Language : Russian
Encoded date : UTC 2015-10-17 09:24:21
Tagged date : UTC 2015-10-17 09:24:24
Menu #1
00:00:00.000 : Глава 1
00:05:31.000 : Глава 2
00:10:55.000 : Глава 3
00:16:23.000 : Глава 4
00:21:30.000 : Глава 5
00:26:59.000 : Глава 6
00:32:14.000 : Глава 7
00:37:45.000 : Глава 8
00:44:11.000 : Глава 9
00:50:48.000 : Глава 10
00:56:36.000 : Глава 11
01:02:21.000 : Глава 12
01:07:45.000 : Глава 13
01:12:59.000 : Глава 14
01:18:30.000 : Глава 15
01:22:33.000 : Глава 16
01:27:18.000 : Глава 17
Menu #2
ID : 4
Codec ID : text
Duration : 1h 32mn
Language : Russian
Encoded date : UTC 2015-10-17 09:24:41
Tagged date : UTC 2015-10-17 09:24:41
00:00:00.000 : Глава 1
00:05:31.000 : Глава 2
00:10:55.000 : Глава 3
00:16:23.000 : Глава 4
00:21:30.000 : Глава 5
00:26:59.000 : Глава 6
00:32:14.000 : Глава 7
00:37:45.000 : Глава 8
00:44:11.000 : Глава 9
00:50:48.000 : Глава 10
00:56:36.000 : Глава 11
01:02:21.000 : Глава 12
01:07:45.000 : Глава 13
01:12:59.000 : Глава 14
01:18:30.000 : Глава 15
01:22:33.000 : Глава 16
01:27:18.000 : Глава 17
Bit rate mode : VBR
Скриншоты: Для просмотра данного релиза на компьютере с ОС Windows рекомендуется использовать VLC media player


Смотреть онлайн

[trackeroc.ru].8951.torrent 
Торрент: Зарегистрирован   [ 2015-10-19 08:26 ]

Скачать торрент

37 KB

Статус: проверено
Скачан: 33 раз
Размер: 3.63 GB
 

Admin (19-окт-15)
Похожие торренты
Форум Тема Автор Размер
Зарубежные сериалы Черный список / The Blacklist / Сезон: 4 / Серии: 1-8 из 23 Admin 3.91 GB
Зарубежные сериалы Черный список / The Blacklist (2014) WEB-DLRip (сезон 2, серии 1-22 из 22) Кириллица BiOS 10.74 GB
Зарубежные сериалы Черный список / The Blacklist (2013-2014) BDRip (сезон 1, серии 01-22 из 22) (ТВ3) BiOS 15.09 GB
Зарубежные сериалы Черный список / The Blacklist (2015) WEB-DLRip (сезон 3, серии 1-23) Admin 11.24 GB
Детективы криминал Дама в очках и с ружьем в автомобиле / La dame dans lauto avec des lunettes et un fusil (2015) WEB-DLRip BiOS 1.45 GB

_________________
[Профиль] [ЛС]
Показать сообщения:    
Ответить на тему

Текущее время: Сегодня 20:31

Часовой пояс: GMT + 4



Вы не можете начинать темы
Вы не можете отвечать на сообщения
Вы не можете редактировать свои сообщения
Вы не можете удалять свои сообщения
Вы не можете голосовать в опросах
Вы не можете прикреплять файлы к сообщениям
Вы можете скачивать файлы