Пиковая дама: Черный обряд (2015) WEB-DLRip

Ответить на тему

Статистика раздачи [Обновить пиров]
Скачали
Размер:  1.37 GB   |    Зарегистрирован:  1 год 1 месяц   |    Скачан:  6 раз

Полного источника не было: 13 часов

 
 
 
 
Автор Сообщение

BiOS ®

Стаж: 2 года 7 месяцев

Сообщений: 1740

Откуда: Raccoon City


Пост 20-Окт-2015 14:35

[Цитировать]

Пиковая дама: Черный обряд
«Пиковая дама, приди»
- Год выпуска: 2015
Производство: Россия
Жанр: Ужасы
Продолжительность: 01:32:50
Перевод: Не требуется
Режиссер: Святослав Подгаевский
Актеры: Алина Бабак, Игорь Хрипунов, Владимир Селезнев, Валерия Дмитриева, Сергей Походаев, Евгения Лоза, Валентин Садики, Мария Фомина, Максим Стоянов, Наталья Домерецкая
Премьера (РФ): 10 сентября 2015
Описание: С древних времен считается, что любое зеркало может стать порталом в мир мертвых. Одним из старейших мистических ритуалов с зеркалом является обряд вызова Пиковой Дамы. Четверо подростков в шутку решают призвать ее, но даже не подозревают, на какие ужасы они обрекли себя и своих близких. Теперь мстительный призрак не остановится, пока не получит их души.-Видео: Xvid, 720x400, ~1722 kb/s
Аудио: AC3, 6 ch, 384 kb/s
Семпл: Скачать

Mediainfo

Код:
Общее
Полное имя                               : Pikobaya.dama.2015.O.WEB-Rip.1400MB.nnm-club.avi
Формат                                   : AVI
Формат/Информация                        : Audio Video Interleave
Размер файла                             : 1,37 Гбайт
Продолжительность                        : 1 ч. 32 м.
Общий поток                              : 2115 Кбит/сек
Программа кодирования                    : VirtualDubMod 1.5.10.3 | | (build 2550/release)
Библиотека кодирования                   : VirtualDubMod build 2550/release
Видео
Идентификатор                            : 0
Формат                                   : MPEG-4 Visual
Профиль формата                          : Advanced Simple@L5
Параметр BVOP формата                    : 2
Параметр QPel формата                    : Нет
Параметр GMC формата                     : Без точки перехода
Параметр матрицы формата                 : Default (MPEG)
Идентификатор кодека                     : XVID
Идентификатор кодека/Подсказка           : XviD
Продолжительность                        : 1 ч. 32 м.
Битрейт                                  : 1722 Кбит/сек
Ширина                                   : 720 пикселей
Высота                                   : 400 пикселей
Соотношение сторон                       : 16:9
Частота кадров                           : 24,000 кадра/сек
Цветовое пространство                    : YUV
Субдискретизация насыщенности            : 4:2:0
Битовая глубина                          : 8 бит
Тип развёртки                            : Прогрессивная
Метод сжатия                             : С потерями
Бит/(Пиксели*Кадры)                      : 0.249
Размер потока                            : 1,12 Гбайт (81%)
Библиотека кодирования                   : XviD 1.2.1 (UTC 2008-12-04)
Аудио
Идентификатор                            : 1
Формат                                   : AC-3
Формат/Информация                        : Audio Coding 3
Расширение режима                        : CM (complete main)
Параметр Endianness формата              : Big
Идентификатор кодека                     : 2000
Продолжительность                        : 1 ч. 32 м.
Вид битрейта                             : Постоянный
Битрейт                                  : 384 Кбит/сек
Каналы                                   : 6 каналов
Расположение каналов                     : Front: L C R, Side: L R, LFE
Частота                                  : 48,0 КГц
Метод сжатия                             : С потерями
Размер потока                            : 255 Мбайт (18%)
Выравнивание                             : Разделение по промежуткам
Продолжительность промежутка             : 42  мс. (1,00 видеокадр)
Время предзагрузки промежутка            : 500  мс.
Скриншоты:


Смотреть онлайн

[trackeroc.ru].9026.torrent 
Торрент: Зарегистрирован   [ 2015-10-20 14:40 ]

Скачать торрент

15 KB

Статус: проверено
Скачан: 34 раз
Размер: 1.37 GB
 

Похожие торренты
Форум Тема Автор Размер
Зарубежные сериалы Черный список / The Blacklist / Сезон: 4 / Серии: 1-8 из 23 Admin 3.91 GB
Зарубежные сериалы Черный список / The Blacklist (2014) WEB-DLRip (сезон 2, серии 1-22 из 22) Кириллица BiOS 10.74 GB
Зарубежные сериалы Черный список / The Blacklist (2013-2014) BDRip (сезон 1, серии 01-22 из 22) (ТВ3) BiOS 15.09 GB
Зарубежные сериалы Черный список / The Blacklist (2015) WEB-DLRip (сезон 3, серии 1-23) Admin 11.24 GB
Детективы криминал Дама в очках и с ружьем в автомобиле / La dame dans lauto avec des lunettes et un fusil (2015) WEB-DLRip BiOS 1.45 GB

_________________
[Профиль] [ЛС]
Показать сообщения:    
Ответить на тему

Текущее время: Сегодня 09:55

Часовой пояс: GMT + 4



Вы не можете начинать темы
Вы не можете отвечать на сообщения
Вы не можете редактировать свои сообщения
Вы не можете удалять свои сообщения
Вы не можете голосовать в опросах
Вы не можете прикреплять файлы к сообщениям
Вы можете скачивать файлы