Пираты Карибского моря: Квадрология / Pirates of the Caribbean: Quadrilogy (2003-2011) HDRip [H.264] [MP4|960х400]

Ответить на тему

Статистика раздачи [Обновить пиров]
Размер:  10.5 GB   |    Зарегистрирован:  1 год   |    Скачан:  7 раз

Полного источника не было: 7 дней

 
 
 
 
Автор Сообщение

BiOS ®

Стаж: 2 года 7 месяцев

Сообщений: 1740

Откуда: Raccoon City


Пост 17-Ноя-2015 11:42

[Цитировать]

Пираты Карибского моря: Квадрология / Pirates of the Caribbean: Quadrilogy (2003-2011) - Производство: США
Жанр: Фэнтези, Приключения, Боевик
Режиссер: Гор Вербински, Роб Маршалл
Актеры: Джонни Депп, Джеффри Раш, Орландо Блум, Кира Найтли, Пенелопа Крус, Джек Девенпорт, Джонатан Прайс, Ли Аренберг, Маккензи Крук, Дэмиан О’Хейр, Джиллз Нью и другие
Описание:
"Пираты Карибского моря"- серия приключенческих фильмов о пиратах в Карибском море, режиссёрами которых выступили Гор Вербински (1—3 части) и Роб Маршалл (4 часть). Сценарий ко всем фильмам писали Терри Россио и Тед Эллиот, а спродюсированы они были Джерри Брукхаймером. Фильмы были сняты после открытия аттракционов в Диснейлендах, а также при поддержке кинокомпании Walt Disney Pictures. Главные герои на протяжении всех частей — капитан Джек Воробей (Джонни Депп), Гектор Барбосса (Джеффри Раш), а второстепенные персонажи — Уилл Тёрнер (Орландо Блум), Элизабет Суонн (Кира Найтли), Джошами Гиббс (Кевин МакНелли), а также введённая в четвёртой части Анжелика (Пенелопа Крус)
Продолжительность: 02:23:15, 02:30:39, 02:48:31, 02:16:23
Качество видео: HDRip
Перевод: Дублированный
Видео: AVC/H.264, 960x400, ~2345 Kbps
Аудио: AAC, 2 ch, 160 Kbps, Русский
Параметры кодировки идентичны

Mediainfo:

Код:
General
Complete name                            : Pirates of the Caribbean. The Curse of the Black Pearl (2003).mp4
Format                                   : MPEG-4
Format profile                           : Base Media
Codec ID                                 : isom
File size                                : 2.51 GiB
Duration                                 : 2h 23mn
Overall bit rate mode                    : Variable
Overall bit rate                         : 2 511 Kbps
Movie name                               : Pirates of the Caribbean: The Curse of the Black Pearl (2003) [NoNaMe-Club. rip by alien.09]
ContentType                              : Short Film
Encoded date                             : UTC 2015-10-14 16:13:31
Tagged date                              : UTC 2015-10-14 16:16:09
Video
ID                                       : 1
Format                                   : AVC
Format/Info                              : Advanced Video Codec
Format profile                           : Main@L4.1
Format settings, CABAC                   : Yes
Format settings, ReFrames                : 3 frames
Codec ID                                 : avc1
Codec ID/Info                            : Advanced Video Coding
Duration                                 : 2h 23mn
Bit rate                                 : 2 345 Kbps
Maximum bit rate                         : 6 128 Kbps
Width                                    : 960 pixels
Height                                   : 400 pixels
Display aspect ratio                     : 2.40:1
Frame rate mode                          : Constant
Frame rate                               : 23.976 fps
Color space                              : YUV
Chroma subsampling                       : 4:2:0
Bit depth                                : 8 bits
Scan type                                : Progressive
Bits/(Pixel*Frame)                       : 0.255
Stream size                              : 2.35 GiB (93%)
Writing library                          : x264 core 116 r2019M 9cc407d
Encoding settings                        : cabac=1 / ref=3 / deblock=1:-1:-1 / analyse=0x1:0x131 / me=hex / subme=7 / psy=1 / psy_rd=1.00:0.15 / mixed_ref=1 / me_range=16 / chroma_me=1 / trellis=1 / 8x8dct=0 / cqm=0 / deadzone=21,11 / fast_pskip=1 / chroma_qp_offset=-3 / threads=12 / sliced_threads=0 / nr=0 / decimate=1 / interlaced=0 / bluray_compat=0 / constrained_intra=0 / bframes=3 / b_pyramid=0 / b_adapt=2 / b_bias=0 / direct=3 / weightb=1 / open_gop=0 / weightp=0 / keyint=230 / keyint_min=23 / scenecut=40 / intra_refresh=0 / rc_lookahead=40 / rc=2pass / mbtree=1 / bitrate=2345 / ratetol=1.0 / qcomp=0.60 / qpmin=10 / qpmax=51 / qpstep=4 / cplxblur=20.0 / qblur=0.5 / vbv_maxrate=5000 / vbv_bufsize=1835 / nal_hrd=none / ip_ratio=1.40 / aq=1:1.00
Language                                 : English
Encoded date                             : UTC 2015-10-14 16:13:31
Tagged date                              : UTC 2015-10-14 16:14:38
Audio
ID                                       : 2
Format                                   : AAC
Format/Info                              : Advanced Audio Codec
Format profile                           : LC
Codec ID                                 : 40
Duration                                 : 2h 23mn
Bit rate mode                            : Variable
Bit rate                                 : 160 Kbps
Maximum bit rate                         : 209 Kbps
Channel count                            : 2 channels
Channel positions                        : Front: L R
Sampling rate                            : 48.0 KHz
Compression mode                         : Lossy
Stream size                              : 164 MiB (6%)
Language                                 : Russian
Encoded date                             : UTC 2015-10-14 16:14:35
Tagged date                              : UTC 2015-10-14 16:14:38

Описание серий:

Пираты Карибского моря: Проклятие Черной жемчужины / Pirates of the Caribbean: The Curse of the Black Pearl
Жизнь харизматичного авантюриста, капитана Джека Воробья, полная увлекательных приключений, резко меняется, когда его заклятый враг - капитан Барбосса - похищает корабль Джека, Черную Жемчужину, а затем нападает на Порт Ройал и крадет прекрасную дочь губернатора, Элизабет Свонн.
Друг детства Элизабет, Уилл Тернер, вместе с Джеком возглавляет спасательную экспедицию на самом быстром корабле Британии, в попытке вызволить девушку из плена и заодно отобрать у злодея Черную Жемчужину. Вслед за этой парочкой отправляется амбициозный коммодор Норрингтон, который к тому же числится женихом Элизабет.
Однако Уилл не знает, что над Барбоссой висит вечное проклятие, при лунном свете превращающее его с командой в живых скелетов. Проклятье будет снято лишь тогда, когда украденное золото Ацтеков будет возвращено пиратами на старое место.
Пираты Карибского моря: Сундук мертвеца / Pirates of the Caribbean: Dead Man's Chest (2006)
Вновь оказавшись в ирреальном мире, лихой капитан Джек Воробей неожиданно узнает, что является должником легендарного капитана «Летучего Голландца» Дэйви Джонса. Джек должен в кратчайшие сроки решить эту проблему, иначе ему грозит вечное проклятие и рабское существование после смерти. Вдобавок ко всему, срывается свадьба Уилла Тернера и Элизабет Суонн, которые вынуждены составить Джеку компанию в его злоключениях...
Пираты Карибского моря: На краю Света / Pirates of the Caribbean: At World's End (2007)
Новые приключения Джека Воробья и его друзей Уилла Тернера и Элизабет Суонн. На этот раз Уиллу и Элизабет придется объединиться с самим Капитаном Барбоссой для того, чтобы отправиться на край света и спасти своего друга - Джека. Ситуация осложняется тем, что Элизабет попадает к сингапурским пиратам...
Пираты Карибского моря: На странных берегах / Pirates of the Caribbean: On Stranger Tides (2011)
В новой истории о поисках истины, предательстве, вечной молодости и смертельной опасности капитану Джеку Воробью предстоит столкнуться с женщиной из своего прошлого Анжеликой. До самого конца не будет понятно, связывает ли их настоящая любовь, или же Анжелика искусно притворяется, чтобы вместе с Джеком добраться до таинственного источника вечной молодости.
Она силой принуждает капитана Джека Воробья взойти на корабль «Месть Королевы Анны», которым управляет коварный злодей Черная Борода. Наш герой оказывается в ситуации, когда он не знает, чего ему бояться больше - ужасного злодея или же свою давнюю подругу.
-Скриншоты:


Смотреть онлайн

[trackeroc.ru].9854.torrent 
Торрент: Зарегистрирован   [ 2015-11-17 11:42 ]

Скачать торрент

27 KB

Статус: проверено
Скачан: 30 раз
Размер: 10.5 GB
 

Angel (20-ноя-15)
Похожие торренты
Форум Тема Автор Размер
Отечественные Синдбад. Пираты семи штормов (2016) WEB-DLRip BiOS 1.37 GB
Документальные Трейлеры Пираты Карибского моря: Мертвецы не рассказывают сказки / Pirates of the Caribbean: Dead Men Tell No Tales (2017) WEBRip BiOS 241 MB
Логические игры, пазлы ,три в ряд Pirate Mosaic Puzzle Carribean Treasures/Мозаика Пазл Пираты: Сокровища Карибского моря (2016) (Nevosoft) (RUS) [P] HOPE 305 MB
Приключения В сердце моря / In the Heart of the Sea (2015) DVDScr [звук с TS] Admin 2.05 GB

_________________
[Профиль] [ЛС]
Показать сообщения:    
Ответить на тему

Текущее время: Сегодня 07:59

Часовой пояс: GMT + 4



Вы не можете начинать темы
Вы не можете отвечать на сообщения
Вы не можете редактировать свои сообщения
Вы не можете удалять свои сообщения
Вы не можете голосовать в опросах
Вы не можете прикреплять файлы к сообщениям
Вы можете скачивать файлы