Планета сокровищ / Treasure Planet (2002) [720p] BDRip

Ответить на тему

Статистика раздачи [Обновить пиров]
Размер:  3.57 GB   |    Зарегистрирован:  1 год 4 месяца   |    Скачан:  0 раз
DL-List: Нет

Полного источника не было: 5 месяцев 1 день

 
 
 
 
Автор Сообщение

BiOS ®

Стаж: 2 года 7 месяцев

Сообщений: 1733

Откуда: Raccoon City


Пост 18-Июл-2015 08:15

[Цитировать]

Планета сокровищ / Treasure Planet - Название: Планета сокровищ
Оригинальное название: Treasure Planet
Производство: США, Walt Disney Pictures
Год выпуска: 2002
Жанр: Фантастика, комедия, приключения, мультфильм--Режиссер: Рон Клементс, Джон Мускер
Персонажи: Роско Ли Браун, Кори Бертон, Дэйн А. Дэвис, Джозеф Гордон-Левитт, Тони Джей, Остин Мэйджерс, Патрик МакГухан, Майкл МакШейн, Лори Меткаф, Брайан Мюррей, Мартин Шорт, Эмма Томпсон, Джек Эйнджел, Дженнифер Дарлинг--Описание: 15-летний Джим Хоукинс отправляется на поиски таинственной Планеты Сокровищ в компании настоящих космических пиратов. Под руководством корабельного кока, киборга Джона Сильвера, он становится умелым «космоплавателем» и не раз спасает космический галеон от самых серьезных опасностей: черных дыр, взрывов сверхновых и космических штормов. Но главное испытание поджидает юного героя впереди — предательство близкого друга, который вместе с командой матросов пытается обманом захватить все сокровища и скрыться…-Продолжительность: 01:35:23
Перевод: Многоголосый закадровый
Язык субтитров: Русские, английские
Вид субтитров: Вшитые (отключаемые)--Качество видео: BDRip
Видеокодек: MPEG-4 AVC/H.264
Битрейт видео: ~3396 Кбит/с
Размер кадра: 1216x720
Аудио 1: Русский; AC3; 448 Kbps; CBR; 6 ch; 16 bit
Аудио 2: Англ-ий; DTS; 1510 Kbps; CBR; 6 ch; 24 bit
-

Mediainfo

General
Unique ID : 212454358625684910520921444802134765850 (0x9FD5389A9E22A9C591C4F5A1D33F711A)
Complete name : D:\uTorrent\Planeta.sokrovish.2002.(720p).BDRip.mkv
Format : Matroska
Format version : Version 2
File size : 3.57 GiB
Duration : 1h 35mn
Overall bit rate : 5 352 Kbps
Encoded date : UTC 2012-06-29 00:30:34
Writing application : mkvmerge v5.6.0 ('Kenya Kane') built on May 27 2012 16:44:04
Writing library : libebml v1.2.3 + libmatroska v1.3.0
Video
ID : 1
Format : AVC
Format/Info : Advanced Video Codec
Format profile : High@L4.1
Format settings, CABAC : Yes
Format settings, ReFrames : 5 frames
Muxing mode : Header stripping
Codec ID : V_MPEG4/ISO/AVC
Duration : 1h 35mn
Bit rate : 3 396 Kbps
Width : 1 216 pixels
Height : 720 pixels
Display aspect ratio : 1.689
Frame rate : 23.976 fps
Color space : YUV
Chroma subsampling : 4:2:0
Bit depth : 8 bits
Scan type : Progressive
Bits/(Pixel*Frame) : 0.162
Stream size : 2.19 GiB (61%)
Title : by AKTEP
Writing library : x264 core 125 r2200 999b753
Encoding settings : cabac=1 / ref=5 / deblock=1:-1:-1 / analyse=0x3:0x113 / me=umh / subme=7 / psy=1 / psy_rd=1.00:0.00 / mixed_ref=1 / me_range=16 / chroma_me=1 / trellis=1 / 8x8dct=1 / cqm=0 / deadzone=21,11 / fast_pskip=1 / chroma_qp_offset=-2 / threads=12 / lookahead_threads=2 / sliced_threads=0 / nr=0 / decimate=1 / interlaced=0 / bluray_compat=0 / constrained_intra=0 / bframes=3 / b_pyramid=2 / b_adapt=2 / b_bias=0 / direct=3 / weightb=1 / open_gop=0 / weightp=2 / keyint=250 / keyint_min=23 / scenecut=40 / intra_refresh=0 / rc_lookahead=40 / rc=2pass / mbtree=1 / bitrate=3396 / ratetol=1.0 / qcomp=0.60 / qpmin=0 / qpmax=69 / qpstep=4 / cplxblur=20.0 / qblur=0.5 / vbv_maxrate=50000 / vbv_bufsize=50000 / nal_hrd=none / ip_ratio=1.40 / aq=1:1.00
Language : English
Default : Yes
Forced : No
Audio #1
ID : 2
Format : AC-3
Format/Info : Audio Coding 3
Mode extension : CM (complete main)
Format settings, Endianness : Big
Muxing mode : Header stripping
Codec ID : A_AC3
Duration : 1h 35mn
Bit rate mode : Constant
Bit rate : 448 Kbps
Channel(s) : 6 channels
Channel positions : Front: L C R, Side: L R, LFE
Sampling rate : 48.0 KHz
Bit depth : 16 bits
Compression mode : Lossy
Delay relative to video : 31ms
Stream size : 306 MiB (8%)
Language : Russian
Default : No
Forced : No
Audio #2
ID : 3
Format : DTS
Format/Info : Digital Theater Systems
Muxing mode : Header stripping
Codec ID : A_DTS
Duration : 1h 35mn
Bit rate mode : Constant
Bit rate : 1 510 Kbps
Channel(s) : 6 channels
Channel positions : Front: L C R, Side: L R, LFE
Sampling rate : 48.0 KHz
Bit depth : 24 bits
Compression mode : Lossy
Stream size : 1.01 GiB (28%)
Language : English
Default : Yes
Forced : No
Text #1
ID : 4
Format : UTF-8
Codec ID : S_TEXT/UTF8
Codec ID/Info : UTF-8 Plain Text
Language : Russian
Default : Yes
Forced : No
Text #2
ID : 5
Format : UTF-8
Codec ID : S_TEXT/UTF8
Codec ID/Info : UTF-8 Plain Text
Language : English
Default : No
Forced : No
-Скриншоты:


Смотреть онлайн

[trackeroc.ru].7076.torrent 
Торрент: Зарегистрирован   [ 2015-07-18 08:15 ]

Скачать торрент

19 KB

Статус: проверено
Скачан: 15 раз
Размер: 3.57 GB
 

MR_Ys (18-июл-15)
Похожие торренты
Форум Тема Автор Размер
Зарубежные сериалы Третья планета от Солнца / 3rd Rock from the Sun (1996-1997) TVRip (сезон 1-6 полностью) BiOS 28.05 GB
Фантастика Фэнтези Планета обезьян / Planet of the Apes (2001) DVDRip BiOS 1.76 GB
Фантастика Фэнтези Планета обезьян: Революция / Dawn of the Planet of the Apes (2014) HDRip BiOS 1.46 GB
Логические игры, пазлы ,три в ряд 1001 Jigsaw. Earth Chronicles3/1001 Пазл. Планета Земля 3 (2016) (Nevosoft) (RUS) [P] HOPE 271 MB
Логические игры, пазлы ,три в ряд 1001 Jigsaw. Earth Chronicles 4 / 1001 Пазл. Планета Земля 4 (2016) (Nevosoft) (RUS) [P] HOPE 258 MB

_________________
[Профиль] [ЛС]
Показать сообщения:    
Ответить на тему

Текущее время: Сегодня 02:19

Часовой пояс: GMT + 4



Вы не можете начинать темы
Вы не можете отвечать на сообщения
Вы не можете редактировать свои сообщения
Вы не можете удалять свои сообщения
Вы не можете голосовать в опросах
Вы не можете прикреплять файлы к сообщениям
Вы можете скачивать файлы