По ту сторону смерти (2018) WEB-DLRip (1-16 серии из 16) скачать торрент

Ответить на тему

Статистика раздачи [Обновить пиров]
Размер:  8.7 GB   |    Зарегистрирован:  4 месяца 11 дней   |    Скачан:  3 раза

Полного источника не было: 13 дней

 
 
 
 
 
Автор Сообщение

BiOS ®

Стаж: 4 года 3 месяца

Сообщений: 2045

Откуда: Raccoon City


Пост 09-Мар-2018 05:27

[Цитировать]

По ту сторону смерти
- Производство: Россия, канал НТВ
Год выпуска: 2018
Жанр: Детектив, триллер
Режиссер: Сергей Чекалов
Актеры: Сергей Гармаш, Светлана Ходченкова, Виктор Добронравов, Борис Невзоров, Виктория Исакова, Илья Любимов, Александр Рапопорт, Ирина Цывина, Ольга Титова, Станислав Бондаренко, Антон Шурцов, Джунсуке Киносита, Сергей Комаров, Михаил Хмуров, Сергей Сосновский, Александр Андриенко
Описание фильма:
Сюжет начинается со странной истории, в которой пытается разобраться следователь СК Глеб Точилин перед выходом на пенсию. Он должен найти исчезнувшее из морга тело Алексея Быстрова, который попал под поезд, а на следующий день… встал и ушёл на своих двоих. В поисках «живого трупа» Точилину помогает сотрудница Института мозга Юлия Дёмина, которую пропавший спас из-под колёс электрички.
В силу разницы в возрасте и мировоззрении Точилину и Дёминой трудно найти общий язык. Но разногласия уходят на второй план, когда детективам выпадает новый ребус и очередное мистическое преступление. Чтобы закрыть второе дело «Остров», напарники отправятся на морское побережье за призраками из тёмного прошлого Глеба.-Продолжительность: ~ 00:50:00 серия
Качество видео: WEB-DLRip
Видео: AVI, XviD, 720x400, 1444 kbps
Аудио: MP3, 2 ch, 128 Kbps

MediaInfo:

Код:
Общее
Формат : AVI
Формат/Информация : Audio Video Interleave
Размер файла : 557 Мбайт
Продолжительность : 49 м. 15 с.
Общий поток : 1582 Кбит/сек
Программа кодирования : VirtualDubMod 1.5.10.3 | www.virtualdub-fr.org || (build 2550/release)
Библиотека кодирования : VirtualDubMod build 2550/release
Видео
Идентификатор : 0
Формат : MPEG-4 Visual
Профиль формата : Advanced Simple@L5
Настройки формата : BVOP1
Параметр BVOP формата : 1
Параметр QPel формата : Нет
Параметр GMC формата : Без точки перехода
Параметр матрицы формата : Default (H.263)
Идентификатор кодека : XVID
Идентификатор кодека/Подсказка : XviD
Продолжительность : 49 м. 15 с.
Битрейт : 1444 Кбит/сек
Ширина : 720 пикселей
Высота : 400 пикселей
Соотношение сторон : 16:9
Частота кадров : 25,000 кадров/сек
Цветовое пространство : YUV
Субдискретизация насыщенности : 4:2:0
Битовая глубина : 8 бит
Тип развёртки : Прогрессивная
Метод сжатия : С потерями
Бит/(Пиксели*Кадры) : 0.201
Размер потока : 509 Мбайт (91%)
Библиотека кодирования : XviD 73
Аудио
Идентификатор : 1
Формат : MPEG Audio
Версия формата : Version 1
Профиль формата : Layer 3
Идентификатор кодека : 55
Идентификатор кодека/Подсказка : MP3
Продолжительность : 49 м. 15 с.
Вид битрейта : Постоянный
Битрейт : 128 Кбит/сек
Каналы : 2 канала
Частота : 48,0 КГц
Частота кадров : 41,667 кадра/сек (1152 SPF)
Метод сжатия : С потерями
Размер потока : 45,1 Мбайт (8%)
Выравнивание : Соединение по промежуткам
Продолжительность промежутка : 40 мс. (1,00 видеокадр)
Время предзагрузки промежутка : 504 мс.
Библиотека кодирования : LAME3.99r
Настройки программы : -m s -V 4 -q 0 -lowpass 17 -b 128
-Скриншоты:


Смотреть онлайн


[trackeroc.ru].24338.torrent 
Торрент: Зарегистрирован   [ 2018-03-09 05:27 ]

Скачать торрент

45 KB

Статус: проверено
Скачан: 17 раз
Размер: 8.7 GB
 

Dreamka (09-мар-18), Admin (10-мар-18)

Похожие торренты
Форум Тема Автор Размер
Зарубежные сериалы Двойник / По ту сторону / Counterpart (2017) WEB-DLRip (сезон 1, серии 1-10 из 10) Admin 6.97 GB
Зарубежные сериалы По ту сторону / Beyond (2018) (сезон 2, серии 1-10 из 10) BiOS 5.65 GB
Ужасы ,мистика ,триллеры По ту сторону двери / The Other Side of the Door (2016) WEB-DLRip | iTunes Admin 1.37 GB
Квесты, я ищу, Поиск предметов, Hidden Object Love Chronicles 5 Beyond the Shadows Collector's Edition / История любви 5 По ту сторону теней [P] [RUS / ENG] HOPE 934 MB
[Профиль] [ЛС]
Показать сообщения:    
Ответить на тему

Текущее время: Сегодня 08:30

Часовой пояс: GMT + 4



Вы не можете начинать темы
Вы не можете отвечать на сообщения
Вы не можете редактировать свои сообщения
Вы не можете удалять свои сообщения
Вы не можете голосовать в опросах
Вы не можете прикреплять файлы к сообщениям
Вы можете скачивать файлы