Под маской / Beyond the Mask (Чад Барнс / Chad Burns) [2015, боевик, драма, HDRip]

Ответить на тему

Статистика раздачи [Обновить пиров]
Размер:  1.45 GB   |    Зарегистрирован:  1 год 1 месяц   |    Скачан:  6 раз
Сидов:  1444  [  0 KB/s  ]   Личеров:  866  [  0 KB/s  ]   Подробная статистика пиров
   
 
Автор Сообщение

Матвей ®

Стаж: 1 год 2 месяца

Сообщений: 236

Откуда: Челябинск


Пост 11-Окт-2015 10:06

[Цитировать]

Под маской / Beyond the Mask --- Производство: США | Burns Family Studios.
Жанр: боевик, драма
Режиссер: Чад Барнс
Актеры: Эндрю Чейни, Джон Рис-Дэвис, Кара Киллмер, Адетокумбо Маккормак, Самрат Чакрабарти, Стив Блэквуд, Томас Д. Махард, Чарли Ньюхарт, Энни Китрал, Майкл Эллисон, Гарри Эдвард Карлсон
Описание:
Стремясь изменить свою жизнь, убийца Ост-Индской компании прячется от своего прошлого в тихой английской деревне, надев мантию англиканского священника. Но это маскировка длится не долго, когда любимая женщина и война заставляют его показать, кто он есть на самом деле. В условиях надвигающегося глобального конфликта, он открывает для себя смысл и источник истинного правосудия и свободы.

КиноПоиск
IMDB
Дата мировой премьеры: 6 апреля 2015
Продолжительность: 01:44:46
Качество видео: HDRip
Перевод: Двуголосый закадровый, любительский (Tiero Lysenko)
Вид субтитров: Отсутствуют
Видео: XviD, 720x304, ~1595 kb/s
Аудио: 48 kHz, AC3, 2 ch, 384 Кбит/с
Семпл: Скачать

MediaInfo:

Код:
Общее
Формат                                   : AVI
Формат/Информация                        : Audio Video Interleave
Размер файла                             : 1,45 Гбайт
Продолжительность                        : 1 ч. 44 м.
Общий поток                              : 1988 Кбит/сек
Название фильма                          : P0d.Ma7k0y.2015.L2.HDRip_EPIDEMZ.COM
Режиссёр                                 : TieR0ly7eNk0
Программа кодирования                    : VirtualDubMod 1.5.10.3 | | (build 2550/release)
Видео
Идентификатор                            : 0
Формат                                   : MPEG-4 Visual
Профиль формата                          : Advanced Simple@L5
Параметр BVOP формата                    : 2
Параметр QPel формата                    : Нет
Параметр GMC формата                     : Без точки перехода
Параметр матрицы формата                 : Default (MPEG)
Идентификатор кодека                     : XVID
Идентификатор кодека/Подсказка           : XviD
Продолжительность                        : 1 ч. 44 м.
Битрейт                                  : 1595 Кбит/сек
Ширина                                   : 720 пикселей
Высота                                   : 304 пикселя
Соотношение сторон                       : 2,35:1
Частота кадров                           : 23,976 кадра/сек
Цветовое пространство                    : YUV
Субдискретизация насыщенности            : 4:2:0
Битовая глубина                          : 8 бит
Тип развёртки                            : Прогрессивная
Метод сжатия                             : С потерями
Бит/(Пиксели*Кадры)                      : 0.304
Размер потока                            : 1,17 Гбайт (80%)
Библиотека кодирования                   : XviD 1.2.1 (UTC 2008-12-04)
Аудио
Идентификатор                            : 1
Формат                                   : AC-3
Формат/Информация                        : Audio Coding 3
Расширение режима                        : CM (complete main)
Параметр Endianness формата              : Big
Идентификатор кодека                     : 2000
Продолжительность                        : 1 ч. 44 м.
Вид битрейта                             : Постоянный
Битрейт                                  : 384 Кбит/сек
Каналы                                   : 2 канала
Расположение каналов                     : Front: L R
Частота                                  : 48,0 КГц
Метод сжатия                             : С потерями
Размер потока                            : 288 Мбайт (19%)
Выравнивание                             : Разделение по промежуткам
Продолжительность промежутка             : 42  мс. (1,00 видеокадр)
Время предзагрузки промежутка            : 500  мс.

Скриншоты:



Смотреть онлайн

[trackeroc.ru].8573.torrent 
Торрент: Зарегистрирован   [ 2015-10-11 10:06 ]

Скачать торрент

15 KB

Статус: проверено
Скачан: 15 раз
Размер: 1.45 GB
 

Admin (11-окт-15)
Похожие торренты
Форум Тема Автор Размер
Квесты , я ищу , Поиск предметов Hidden Object Grim Facade 7. Monster In Disguise [CE] / За гранью жестокости 7: Дьявол под маской [КИ] [P] [RUS / ENG] (2016) HOPE 978 MB
Драмы Под маской / Beyond the Mask (2015) HDRip Admin 1.45 GB
Квесты , я ищу , Поиск предметов Hidden Object Phantasmat 5: Behind the Mask Collectors Edition / Фантазмат 5: За маской (2015) (Big Fish Games) (RUS) [P] HOPE 848 MB

_________________

[Профиль] [ЛС]
Показать сообщения:    
Ответить на тему

Текущее время: Сегодня 19:23

Часовой пояс: GMT + 4



Вы не можете начинать темы
Вы не можете отвечать на сообщения
Вы не можете редактировать свои сообщения
Вы не можете удалять свои сообщения
Вы не можете голосовать в опросах
Вы не можете прикреплять файлы к сообщениям
Вы можете скачивать файлы