Под прикрытием / Gangland Undercover / Сезон: 1 / Серии: 1-6 [2015]

Ответить на тему

Статистика раздачи [Обновить пиров]
Размер:  3.96 GB   |    Зарегистрирован:  1 год 3 месяца   |    Скачан:  1 раз
Сидов:  1  [  0 KB/s  ]   Личеров:  1  [  0 KB/s  ]   Подробная статистика пиров
   
 
Автор Сообщение

Admin ®

Стаж: 7 месяцев 12 дней

Сообщений: 4451

Откуда: trackeroc.ru


Пост 28-Авг-2015 17:35

[Цитировать]

Под прикрытием / Gangland Undercover
Год выпуска: 2015
Страна: США
Жанр: драма, криминал
Продолжительность: 00:42:57
Перевод: Профессиональный (многоголосый закадровый) - NewStudio

Режиссёр: Ноэль Бейкер / Noel Baker
В ролях: Паулино Нуньес, Дон Фрэнкс, Дэймон Руньян, Ари Коэн, Горан Степанович, Джон Линь, Ашли Треденик, Джеймс Кейд, Мелани Скрофано, Иэн Мэтьюз, Киран Фризен, Джессика Херас, Кеван Кейс, Патрисия Маккензи
Описание: Биографическая криминальная драма рассказывает правдивую историю о человеке, который живет двойной жизнью на протяжении трех лет. Чарльз Фалько дилер, ему грозит двадцать лет тюрьмы по обвинению в торговле наркотиками. Но, чтобы избежать этого, Чарльз заключает сделку — он становится агентом ATF. Его миссия очень опасна. Фалько должен проникнуть в одну из самых жестоких банд Америки. Члены этой преступной группировки занимаются торговлей оружием и наркотиками, убийствами и отмыванием денег. Опаснейшая полицейская операция успешно завершилась в марте 2006 года.
Качество: WEB-DLRip
Формат: AVI
Видео: 720x400 (1.80:1), 23.976 fps, XviD build 73 ~1999 kbps avg, 0.29 bit/pixel
Аудио: 48 kHz, AC3 Dolby Digital, 2/0 (L,R) ch, ~192 kbps
Субтитры: отсутствуют

MediaInfo

Общее
Полное имя : H:\Gangland.Undercover_s01.2015.web-dlrip_[teko]\s01e04_Dangerous.Game.avi
Формат : AVI
Формат/Информация : Audio Video Interleave
Размер файла : 676 Мбайт
Продолжительность : 42 м.
Общий поток : 2201 Кбит/сек
Программа кодирования : VirtualDubMod 1.5.10.3 | www.virtualdub-fr.org || (build 2550/release)
Библиотека кодирования : VirtualDubMod build 2550/release
Видео
Идентификатор : 0
Формат : MPEG-4 Visual
Профиль формата : Advanced Simple@L5
Параметр BVOP формата : 1
Параметр QPel формата : Нет
Параметр GMC формата : Без точки перехода
Параметр матрицы формата : Выборочная
Идентификатор кодека : XVID
Идентификатор кодека/Подсказка : XviD
Продолжительность : 42 м.
Битрейт : 2000 Кбит/сек
Ширина : 720 пикселей
Высота : 400 пикселей
Соотношение сторон : 16:9
Частота кадров : 23,976 кадра/сек
Цветовое пространство : YUV
Субдискретизация насыщенности : 4:2:0
Битовая глубина : 8 бит
Тип развёртки : Прогрессивная
Метод сжатия : С потерями
Бит/(Пиксели*Кадры) : 0.290
Размер потока : 614 Мбайт (91%)
Библиотека кодирования : XviD 73
Аудио
Идентификатор : 1
Формат : AC-3
Формат/Информация : Audio Coding 3
Расширение режима : CM (complete main)
Параметр Endianness формата : Big
Идентификатор кодека : 2000
Продолжительность : 42 м.
Вид битрейта : Постоянный
Битрейт : 192 Кбит/сек
Каналы : 2 канала
Расположение каналов : Front: L R
Частота : 48,0 КГц
Битовая глубина : 16 бит
Метод сжатия : С потерями
Размер потока : 59,0 Мбайт (9%)
Выравнивание : Разделение по промежуткам
Продолжительность промежутка : 42 мс. (1,00 видеокадр)
Время предзагрузки промежутка : 500 мс.

Скриншоты



Смотреть онлайн

[trackeroc.ru].7814.torrent 
Торрент: Зарегистрирован   [ 2015-08-28 17:35 ]

Скачать торрент

21 KB

Статус: проверено
Скачан: 9 раз
Размер: 3.96 GB
 


_________________
[Профиль] [ЛС]
Показать сообщения:    
Ответить на тему

Текущее время: Сегодня 14:24

Часовой пояс: GMT + 4



Вы не можете начинать темы
Вы не можете отвечать на сообщения
Вы не можете редактировать свои сообщения
Вы не можете удалять свои сообщения
Вы не можете голосовать в опросах
Вы не можете прикреплять файлы к сообщениям
Вы можете скачивать файлы