Полярный (2019) WEB-DLRip (сезон 1, серии 1-14 из 14 + Фильм о сериале) скачать торрент

Reply to topic

DL-List and Torrent activity [Update пиров]
Size:  4.93 GB   |    Registered:  16 days   |    Completed:  0 times
Seeders:  9  [  284 KB/s  ]   Show peers in full details
 
 
 
 
Author Message

BiOS ®

Longevity: 5 years 7 months

Posts: 2373

Location: Earth


Post 21-Nov-2019 00:09

[Quote]

Полярный - Производство: Россия / 1-2-3 Production
Жанр: комедия
Режиссер: Михаил Старчак, Константин Статский
Актеры: Михаил Пореченков, Иван Охлобыстин, Катерина Шпица, Владимир Епифанцев, Александр Потапов, Игорь Жижикин, Ян Цапник, Филипп Дьячков, Светлана Листова, Карина Зверева и др.
Описание:
Эта история о бывшем бандите по кличке Витя Мясник. В середине 90-х одно его имя заставляло московских коммерсантов хвататься за сердце, а конкурентов по опасному бизнесу — за стволы. Но со временем Витя отошел от дел и переехал за город. Идиллия нарушается неожиданным визитом бывших подельников Вити во главе с авторитетом по имени Артур. Он просит Витю передержать на его оффшорном банковском счете воровской общак. Витя кладет общак на свой банковский счет и по настойчивой просьбе Артура ставит на счет пароль, который знает только он один...

Возраст: 16+ (зрителям, достигшим 16 лет)
Дата российской премьеры: 28 октября 2019
Продолжительность: ~00:25:00 серия
Качество видео: WEB-DLRip
Видео: Xvid, 720x352, ~1670 Kbps
Аудио: AC3, 2 ch, 192 Kbps

MediaInfo:

Общее
Полное имя : Polyarnyi.s01.e01.avi
Формат : AVI
Формат/Информация : Audio Video Interleave
Размер файла : 350 Мбайт
Продолжительность : 26 м. 10 с.
Общий поток : 1873 Кбит/сек
Программа кодирования : VirtualDubMod 1.5.10.3 | www.virtualdub-fr.org || (build 2550/release)
Библиотека кодирования : VirtualDubMod build 2550/release
Видео
Идентификатор : 0
Формат : MPEG-4 Visual
Профиль формата : Advanced Simple@L5
Настройки формата : BVOP1
Параметр BVOP формата : 1
Параметр QPel формата : Нет
Параметр GMC формата : Без точки перехода
Параметр матрицы формата : Default (MPEG)
Идентификатор кодека : XVID
Идентификатор кодека/Подсказка : XviD
Продолжительность : 26 м. 10 с.
Битрейт : 1671 Кбит/сек
Ширина : 720 пикселей
Высота : 352 пикселя
Соотношение сторон : 2,045
Частота кадров : 25,000 кадров/сек
Цветовое пространство : YUV
Субдискретизация насыщенности : 4:2:0
Битовая глубина : 8 бит
Тип развёртки : Прогрессивная
Метод сжатия : С потерями
Бит/(Пиксели*Кадры) : 0.264
Размер потока : 313 Мбайт (89%)
Библиотека кодирования : XviD 73
Аудио
Идентификатор : 1
Формат : AC-3
Формат/Информация : Audio Coding 3
Коммерческое название : Dolby Digital
Идентификатор кодека : 2000
Продолжительность : 26 м. 10 с.
Вид битрейта : Постоянный
Битрейт : 192 Кбит/сек
Каналы : 2 канала
ChannelLayout : L R
Частота : 48,0 КГц
Частота кадров : 31,250 кадров/сек (1536 SPF)
Метод сжатия : С потерями
Размер потока : 35,9 Мбайт (10%)
Выравнивание : Разделение по промежуткам
Продолжительность промежутка : 40 мс. (1,00 видеокадр)
Время предзагрузки промежутка : 500 мс.
ServiceKind/String : Complete Main
-Скриншоты:


Смотреть онлайн


[trackeroc.org].29528.torrent 
Torrent: Registered   [ 2019-11-21 00:09 ]

Скачать торрент

26 KB

Status: checked
Completed: 6 times
Size: 4.93 GB
 

Admin (21-ноя-19)
Similar torrent
Forum Topic Author Size
Strategy, Стратегии Xenonauts 2 (2019) (ENG) [beta 1.0] Repack DD Admin 3.13 GB
Strategy, Стратегии Surviving the Aftermath [RUS + ENG + 6] (2019) (1.2.0.5239) [В разработке] Repack DD Admin 2.21 GB
Visual Novel, Визуальные новеллы Treasure of Nadia v09121 (2019) (ENG+RUS) Admin 762 MB
Strategy, Стратегии Tropico 6 - The Llama of Wall Street (2019) [Ru/En] (v7.0/dlc) Admin 9.22 GB
Arcade, Аркады, Платформеры Retimed Supporter Edition (2019) (ENG+RUS) Admin 4.39 GB

_________________
[Profile] [PM]
Display posts from previous:    
Reply to topic

The time now is: Today 03:48

All times are GMT + 4 Hours



You cannot post new topics in this forum
You cannot reply to topics in this forum
You cannot edit your posts in this forum
You cannot delete your posts in this forum
You cannot vote in polls in this forum
You cannot attach files in this forum
You can download files in this forum