Поросенок (2014) WEB-DLRip (1-5 серии)

Ответить на тему

Статистика раздачи [Обновить пиров]
Размер:  323 MB   |    Зарегистрирован:  10 месяцев 22 дня   |    Скачан:  8 раз
Сидов:  2  [  0 KB/s  ]   Подробная статистика пиров
   
 
Автор Сообщение

BiOS ®

Стаж: 2 года 7 месяцев

Сообщений: 1742

Откуда: Raccoon City


Пост 20-Янв-2016 03:01

[Цитировать]

Поросенок - Производство: Россия, студия "Пилот"
Жанр: Приключения, минисериал
Режиссер: Наталья Березовая
Описание:
В одном замечательном мире, в самом замечательном его месте живет замечательный маленький поросенок. Все, что с ним случается, интересно и радостно, его окружают милые и добрые создания... ну, каждый по-своему милый и по-своему добрый. А если и происходит с ним что-нибудь плохое, то оно все равно оборачивается чем-то хорошим. Во всяком случае, на его, поросячий, взгляд.
Продолжительность: 5 х ~00:05:00
Качество видео: WEB-DLRip
Видео: Xvid, 720х400 (16:9), ~1629 Кбит/с
Аудио: MP3, 2 ch, 192 Кбит/с, CBR
Семпл: Скачать

Список серий

01. Няня.
02. Бойцовский клуб.
03. Картошка.
04. Морская свинка.
05. Призрак.

Mediainfo:

Код:
Общее
Полное имя                               : С:\Поросенок
Формат                                   : AVI
Формат/Информация                        : Audio Video Interleave
Размер файла                             : 81,7 Мбайт
Продолжительность                        : 6 м. 13 с.
Общий поток                              : 1833 Кбит/сек
Программа кодирования                    : MEncoder SVN-r30881(20100311-gcc4.3.3)
Библиотека кодирования                   : MPlayer
Видео
Идентификатор                            : 0
Формат                                   : MPEG-4 Visual
Профиль формата                          : Advanced Simple@L5
Параметр BVOP формата                    : 2
Параметр QPel формата                    : Нет
Параметр GMC формата                     : Без точки перехода
Параметр матрицы формата                 : Default (H.263)
Идентификатор кодека                     : XVID
Идентификатор кодека/Подсказка           : XviD
Продолжительность                        : 6 м. 13 с.
Битрейт                                  : 1629 Кбит/сек
Ширина                                   : 720 пикселей
Высота                                   : 400 пикселей
Соотношение сторон                       : 16:9
Соотношение сторон в оригинале           : 16:9
Частота кадров                           : 25,000 кадров/сек
Цветовое пространство                    : YUV
Субдискретизация насыщенности            : 4:2:0
Битовая глубина                          : 8 бит
Тип развёртки                            : Прогрессивная
Метод сжатия                             : С потерями
Бит/(Пиксели*Кадры)                      : 0.226
Размер потока                            : 72,6 Мбайт (89%)
Библиотека кодирования                   : XviD 1.2.1 (UTC 2008-12-04)
Аудио
Идентификатор                            : 1
Формат                                   : MPEG Audio
Версия формата                           : Version 1
Профиль формата                          : Layer 3
Режим                                    : Joint stereo
Расширение режима                        : MS Stereo
Идентификатор кодека                     : 55
Идентификатор кодека/Подсказка           : MP3
Продолжительность                        : 6 м. 13 с.
Вид битрейта                             : Постоянный
Битрейт                                  : 192 Кбит/сек
Каналы                                   : 2 канала
Частота                                  : 44,1 КГц
Метод сжатия                             : С потерями
Задержка видео                           : 40 мс.
Размер потока                            : 8,56 Мбайт (10%)
Выравнивание                             : Соединение по промежуткам
Продолжительность промежутка             : 26  мс. (0,65 видеокадр)
Время предзагрузки промежутка            : 522  мс.
Библиотека кодирования                   : LAME3.98
-Скриншоты:


Смотреть онлайн

[trackeroc.ru].11092.torrent 
Торрент: Зарегистрирован   [ 2016-01-20 03:01 ]

Скачать торрент

14 KB

Статус: проверено
Скачан: 119 раз
Размер: 323 MB
 

Admin (20-янв-16)
Похожие торренты
Форум Тема Автор Размер
Зарубежные сериалы Мир Дикого запада / Западный мир / Westworld (2016) WEB-DLRip (сезон 1, серии 1-10 из 10) NewStudio BiOS 7.57 GB
Зарубежные сериалы Викинги / Vikings (2016) WEB-DLRip (сезон 4, серии 1-12 из 20) Admin 6.18 GB
Зарубежные сериалы Флэш / The Flash (2016) WEB-DLRip (сезон 3, серии 1-9 из 23) Admin 4.4 GB
Зарубежные сериалы Зов крови / Потерянная / Lost Girl (2010-2014) WEB-DLRip (Сезон 1-5, серии 1-77 из 77) NewStudio [MP4|640x360] BiOS 37.01 GB
Зарубежные сериалы Вне времени / Timeless (2016) WEB-DLRip (сезон 1, серии 1-9 из 13) BiOS 3.62 GB

_________________
[Профиль] [ЛС]
Показать сообщения:    
Ответить на тему

Текущее время: Сегодня 17:38

Часовой пояс: GMT + 4



Вы не можете начинать темы
Вы не можете отвечать на сообщения
Вы не можете редактировать свои сообщения
Вы не можете удалять свои сообщения
Вы не можете голосовать в опросах
Вы не можете прикреплять файлы к сообщениям
Вы можете скачивать файлы